<?xml version="1.0" standalone="no"?>
<!DOCTYPE svg PUBLIC "-//W3C//DTD SVG 1.1//EN" "http://www.w3.org/Graphics/SVG/1.1/DTD/svg11.dtd" >
<svg xmlns="http://www.w3.org/2000/svg">
<metadata>
<json>
<![CDATA[
{
	"fontFamily": "Phosphor-Bold",
	"majorVersion": 2,
	"minorVersion": 1,
	"fontURL": "https://phosphoricons.com",
	"description": "A flexible icon family for everyone\nFont generated by IcoMoon.",
	"copyright": "Phosphor Icons",
	"designer": "Tobias Fried & Helena Zhang",
	"designerURL": "https://phosphoricons.com",
	"license": "MIT",
	"licenseURL": "https://raw.githubusercontent.com/phosphor-icons/homepage/master/LICENSE",
	"version": "Version 2.1",
	"fontId": "Phosphor-Bold",
	"psName": "Phosphor-Bold",
	"subFamily": "Regular",
	"fullName": "Phosphor-Bold"
}
]]>
</json>
</metadata>
<defs>
<font id="Phosphor-Bold" horiz-adv-x="1024">
<font-face units-per-em="1024" ascent="960" descent="-64" />
<missing-glyph horiz-adv-x="1024" />
<glyph unicode="&#x20;" horiz-adv-x="512" d="" />
<glyph unicode="&#xe000;" glyph-name="pulse-bold, activity-bold" data-tags="pulse-bold" d="M976 448c0-26.51-21.49-48-48-48v0h-98.32l-146.76-293.48c-8.058-15.848-24.243-26.518-42.92-26.52h-2.4c-19.392 1.012-35.655 13.388-42.328 30.553l-0.112 0.327-215.16 564.52-112.32-247.4c-7.77-16.661-24.378-28-43.635-28-0.016 0-0.032 0-0.048 0h-127.998c-26.51 0-48 21.49-48 48s21.49 48 48 48v0h97.080l147.24 324c7.752 16.708 24.384 28.087 43.674 28.087 20.357 0 37.755-12.673 44.733-30.56l0.112-0.327 217.12-569.84 111.12 222.24c8.080 15.784 24.233 26.4 42.865 26.4 0.019 0 0.038 0 0.058 0h127.997c26.51 0 48-21.49 48-48v0z" />
<glyph unicode="&#xe002;" glyph-name="airplane-bold" data-tags="airplane-bold" d="M949.48 458.92l-293.48 146.76v162.32c0 79.529-64.471 144-144 144s-144-64.471-144-144v0-162.32l-293.48-146.76c-15.848-8.058-26.518-24.243-26.52-42.92v0-128c0-0.003 0-0.006 0-0.009 0-26.51 21.49-48 48-48 3.326 0 6.574 0.338 9.71 0.983l-0.31-0.053 262.6 52.52v-49.44l-49.96-50.040c-8.675-8.684-14.040-20.677-14.040-33.922 0-0.013 0-0.027 0-0.040v0.002-128c0.001-26.509 21.491-47.998 48-47.998 6.427 0 12.558 1.263 18.16 3.554l-0.32-0.116 142.16 56.88 142.16-56.88c5.261-2.176 11.37-3.44 17.775-3.44 0.023 0 0.046 0 0.069 0h-0.004c26.51 0 48 21.49 48 48v0 128c0 0.011 0 0.024 0 0.038 0 13.245-5.365 25.238-14.040 33.923l-49.96 50.040v49.44l262.6-52.52c2.826-0.591 6.074-0.929 9.4-0.929 26.51 0 48 21.49 48 48 0 0.003 0 0.007 0 0.010v0 128c-0.002 18.677-10.672 34.862-26.248 42.794l-0.272 0.126zM880 346.56l-262.6 52.52c-2.826 0.591-6.074 0.929-9.4 0.929-26.51 0-48-21.49-48-48 0-0.003 0-0.007 0-0.010v0-128c0-0.011 0-0.024 0-0.038 0-13.245 5.365-25.238 14.040-33.923l49.96-50.040v-37.24l-94.16 37.68c-5.282 2.175-11.413 3.438-17.84 3.438s-12.558-1.263-18.16-3.554l0.32 0.116-94.16-37.56v37.12l49.96 49.92c8.675 8.684 14.040 20.677 14.040 33.922 0 0.055 0 0.111 0 0.166v-0.009 128c0 0.003 0 0.006 0 0.009 0 26.51-21.49 48-48 48-3.326 0-6.574-0.338-9.71-0.983l0.31 0.053-262.6-52.52v39.76l293.48 146.76c15.848 8.058 26.518 24.243 26.52 42.92v0 192c0 26.51 21.49 48 48 48s48-21.49 48-48v0-192c0.002-18.677 10.672-34.862 26.248-42.794l0.272-0.126 293.48-146.76z" />
<glyph unicode="&#xe004;" glyph-name="airplay-bold" data-tags="airplay-bold" d="M548.44 351.24c-8.855 10.285-21.892 16.757-36.44 16.757s-27.585-6.472-36.387-16.694l-0.053-0.063-192-224c-7.183-8.341-11.557-19.28-11.557-31.24 0-26.509 21.489-47.999 47.997-48h384c26.509 0.001 47.997 21.491 47.997 48 0 11.96-4.374 22.899-11.61 31.303l0.053-0.063zM424.44 144l87.56 102.24 87.64-102.24zM944 704v-448c0-61.856-50.144-112-112-112v0h-16c-26.51 0-48 21.49-48 48s21.49 48 48 48v0h16c8.837 0 16 7.163 16 16v0 448c0 8.837-7.163 16-16 16v0h-640c-8.837 0-16-7.163-16-16v0-448c0-8.837 7.163-16 16-16v0h16c26.51 0 48-21.49 48-48s-21.49-48-48-48v0h-16c-61.856 0-112 50.144-112 112v0 448c0 61.856 50.144 112 112 112v0h640c61.856 0 112-50.144 112-112v0z" />
<glyph unicode="&#xe006;" glyph-name="alarm-bold" data-tags="alarm-bold" d="M512 816c-220.914 0-400-179.086-400-400s179.086-400 400-400c220.914 0 400 179.086 400 400v0c-0.25 220.813-179.187 399.75-399.976 400h-0.024zM512 112c-167.895 0-304 136.105-304 304s136.105 304 304 304c167.895 0 304-136.105 304-304v0c-0.182-167.821-136.179-303.818-303.983-304h-0.017zM129.96 670.040c-8.701-8.701-20.722-14.083-34-14.083-26.556 0-48.083 21.528-48.083 48.083 0 13.278 5.382 25.299 14.083 34l128 128c8.701 8.701 20.722 14.083 34 14.083 26.556 0 48.083-21.528 48.083-48.083 0-13.278-5.382-25.299-14.083-34v0zM961.96 670.040c-8.692-8.721-20.716-14.118-34-14.118s-25.308 5.396-33.999 14.116l-128.001 128.001c-8.701 8.701-14.083 20.722-14.083 34 0 26.556 21.528 48.083 48.083 48.083 13.278 0 25.299-5.382 34-14.083l128-128c8.721-8.692 14.118-20.716 14.118-34s-5.396-25.308-14.116-33.999l-0.001-0.001zM704 464c26.51 0 48-21.49 48-48s-21.49-48-48-48v0h-192c-26.51 0-48 21.49-48 48v0 192c0 26.51 21.49 48 48 48s48-21.49 48-48v0-144z" />
<glyph unicode="&#xe008;" glyph-name="android-logo-bold" data-tags="android-logo-bold" d="M720 368c0-35.346-28.654-64-64-64s-64 28.654-64 64c0 35.346 28.654 64 64 64v0c35.346 0 64-28.654 64-64v0zM368 432c-35.346 0-64-28.654-64-64s28.654-64 64-64c35.346 0 64 28.654 64 64v0c0 35.346-28.654 64-64 64v0zM976 320v-96c0-44.183-35.817-80-80-80v0h-768c-44.183 0-80 35.817-80 80v0 91.48c0 0.139 0 0.304 0 0.469 0 128.321 51.491 244.616 134.938 329.35l-0.058-0.059-88.84 88.8c-8.701 8.701-14.083 20.722-14.083 34 0 26.556 21.528 48.083 48.083 48.083 13.278 0 25.299-5.382 34-14.083v0l95.16-95.36c71.103 48.193 158.735 77.041 253.089 77.32h1.711c0.375 0.001 0.819 0.002 1.263 0.002 94.718 0 182.759-28.59 255.963-77.612l-1.666 1.050 94.48 94.52c8.701 8.701 20.722 14.083 34 14.083 26.556 0 48.083-21.528 48.083-48.083 0-13.278-5.382-25.299-14.083-34l-88-88c82.789-83.275 133.961-198.059 133.961-324.795 0-0.41-0.001-0.819-0.002-1.229v0.064zM880 320c0 0.001 0 0.001 0 0.002 0 203.241-164.759 368-368 368-0.464 0-0.928-0.001-1.392-0.003h0.072c-202.2-0.72-366.68-168-366.68-372.52v-75.48h736z" />
<glyph unicode="&#xe00a;" glyph-name="aperture-bold" data-tags="aperture-bold" d="M817.64 753.48c-78.176 78.171-186.172 126.52-305.46 126.52-238.587 0-432-193.413-432-432s193.413-432 432-432c119.289 0 227.285 48.349 305.461 126.52v0c78.786 77.899 127.577 185.992 127.577 305.48s-48.791 227.58-127.537 305.44l-0.040 0.040zM749.64 685.48c12.622-12.561 24.238-26.106 34.734-40.52l0.666-0.96-109.040-128.36-93.2 260.84c65.784-14.351 122.577-46.398 166.912-90.872l0.008-0.008zM274.24 685.48c53.054 53.315 123.988 88.796 203.047 96.687l1.393 0.113 56.64-158.6-272.48 49.88c3.72 4.080 7.52 8.080 11.48 12.040zM192 345.2c-10.164 30.726-16.027 66.095-16.027 102.834 0 50.122 10.913 97.696 30.491 140.475l-0.865-2.108 165.76-30.4zM274.2 210.4c-12.553 12.585-24.119 26.169-34.563 40.617l-0.677 0.983 109.040 128.36 93.2-260.84c-65.768 14.36-122.546 46.406-166.871 90.871l-0.009 0.009zM419.64 464.84l60.72 71.4 92.24-16.84 31.52-88.24-60.68-71.4-92.24 16.84zM749.6 210.4c-53.063-53.302-123.992-88.778-203.044-96.687l-1.396-0.113-56.56 158.4 272.56-49.76c-3.72-3.88-7.52-7.88-11.44-11.84zM652.64 340l179.36 210.8c10.162-30.714 16.024-66.069 16.024-102.794 0-50.14-10.927-97.728-30.529-140.512l0.865 2.106z" />
<glyph unicode="&#xe00c;" glyph-name="archive-bold" data-tags="archive-bold" d="M896 784h-768c-44.183 0-80-35.817-80-80v0-96c0-0.005 0-0.011 0-0.016 0-38.519 27.223-70.68 63.479-78.292l0.521-0.092v-337.6c0-44.183 35.817-80 80-80v0h640c44.183 0 80 35.817 80 80v0 337.6c36.777 7.704 64 39.865 64 78.384 0 0.006 0 0.011 0 0.017v-0.001 96c0 44.183-35.817 80-80 80v0zM144 688h736v-64h-736zM208 208v320h608v-320zM656 416c0-26.51-21.49-48-48-48v0h-192c-26.51 0-48 21.49-48 48s21.49 48 48 48v0h192c26.51 0 48-21.49 48-48v0z" />
<glyph unicode="&#xe00e;" glyph-name="box-arrow-down-bold, archive-box-bold" data-tags="box-arrow-down-bold" d="M906.92 693.48l-64 128c-8.058 15.848-24.243 26.518-42.92 26.52h-576c-18.677-0.002-34.862-10.672-42.794-26.248l-0.126-0.272-64-128c-3.201-6.257-5.078-13.649-5.080-21.479v-544.001c0-44.183 35.817-80 80-80v0h640c44.183 0 80 35.817 80 80v0 544c-0.002 7.831-1.879 15.223-5.206 21.752l0.126-0.272zM770.32 752l24-48h-564.64l24 48zM208 144v464h608v-464zM673.96 401.96c8.721-8.692 14.118-20.716 14.118-34s-5.396-25.308-14.116-33.999l-128.001-128.001c-8.692-8.721-20.716-14.118-34-14.118s-25.308 5.396-33.999 14.116l-128.001 128.001c-8.701 8.701-14.083 20.722-14.083 34 0 26.556 21.528 48.083 48.083 48.083 13.278 0 25.299-5.382 34-14.083v0l46.040-45.96v156c0 26.51 21.49 48 48 48s48-21.49 48-48v0-156l46.040 46.080c8.682 8.662 20.666 14.018 33.9 14.018 13.294 0 25.326-5.404 34.018-14.136l0.002-0.002z" />
<glyph unicode="&#xe010;" glyph-name="tray-arrow-down-bold, archive-tray-bold" data-tags="tray-arrow-down-bold" d="M832 848h-640c-44.183 0-80-35.817-80-80v0-640c0-44.183 35.817-80 80-80v0h640c44.183 0 80 35.817 80 80v0 640c0 44.183-35.817 80-80 80v0zM816 752v-368h-98.76c-0.064 0-0.139 0-0.215 0-22.023 0-41.952-8.961-56.341-23.436l-0.004-0.004-72.68-72.56h-152l-72.68 72.56c-14.393 14.479-34.322 23.44-56.345 23.44-0.076 0-0.151 0-0.227 0h-98.748v368zM208 144v144h92l72.56-72.56c14.393-14.479 34.323-23.441 56.345-23.441 0.118 0 0.235 0 0.353 0.001h165.502c0.064 0 0.139 0 0.215 0 22.023 0 41.952 8.961 56.341 23.436l0.004 0.004 72.68 72.56h92v-144zM350.040 494.040c-8.701 8.701-14.083 20.722-14.083 34 0 26.556 21.528 48.083 48.083 48.083 13.278 0 25.299-5.382 34-14.083v0l45.96-46.040v140c0 26.51 21.49 48 48 48s48-21.49 48-48v0-140l46.040 46.080c8.701 8.701 20.722 14.083 34 14.083 26.556 0 48.083-21.528 48.083-48.083 0-13.278-5.382-25.299-14.083-34l-128-128c-8.692-8.721-20.716-14.118-34-14.118s-25.308 5.396-33.999 14.116l-0.001 0.001z" />
<glyph unicode="&#xe012;" glyph-name="armchair-bold" data-tags="armchair-bold" d="M880 645.88v26.12c-0.114 97.156-78.844 175.886-175.989 176h-384.011c-97.156-0.114-175.886-78.844-176-175.989v-26.131c-84.415-27.77-144.282-105.894-144.282-198s59.867-170.229 142.812-197.58l1.47-0.42v-89.88c0-44.183 35.817-80 80-80v0h576c44.183 0 80 35.817 80 80v0 89.96c84.415 27.77 144.282 105.894 144.282 198s-59.867 170.229-142.812 197.58l-1.47 0.42zM320 752h384c44.183 0 80-35.817 80-80v0-18.48c-94.809-15.336-167.508-92.884-175.272-188.781l-0.048-0.739h-193.36c-7.812 96.636-80.511 174.184-174.122 189.36l-1.198 0.16v18.48c0 44.183 35.817 80 80 80v0zM827.24 336.56c-24.38-2.501-43.238-22.928-43.24-47.76v0-112.8h-544v112.8c-0.002 24.832-18.86 45.259-43.035 47.743l-0.205 0.017c-56.829 5.901-100.76 53.537-100.76 111.435 0 61.856 50.144 112 112 112 61.854 0 111.997-50.141 112-111.994v0-144c0-26.51 21.49-48 48-48s48 21.49 48 48v0 64h192v-64c0-26.51 21.49-48 48-48s48 21.49 48 48v0 144c0.003 61.854 50.146 111.995 112 111.995 61.856 0 112-50.144 112-112 0-57.897-43.931-105.534-100.278-111.394l-0.482-0.041z" />
<glyph unicode="&#xe014;" glyph-name="arrow-arc-left-bold" data-tags="arrow-arc-left-bold" d="M944 224c0-26.51-21.49-48-48-48s-48 21.49-48 48v0c0 0.007 0 0.016 0 0.024 0 185.568-150.432 336-336 336-92.79 0-176.795-37.613-237.6-98.424v0l-61.96-61.6h139.56c26.51 0 48-21.49 48-48s-21.49-48-48-48v0h-256c-26.51 0-48 21.49-48 48v0 256c0 26.51 21.49 48 48 48s48-21.49 48-48v0-140.64l62.64 62.2c78.166 78.111 186.121 126.42 305.36 126.42 238.58 0 431.989-193.402 432-431.979v0z" />
<glyph unicode="&#xe016;" glyph-name="arrow-arc-right-bold" data-tags="arrow-arc-right-bold" d="M976 608v-256c0-26.51-21.49-48-48-48v0h-256c-26.51 0-48 21.49-48 48s21.49 48 48 48v0h139.6l-61.92 61.48c-60.813 60.859-144.85 98.504-237.68 98.504-185.562 0-335.991-150.423-336-335.983v-0.001c0-26.51-21.49-48-48-48s-48 21.49-48 48v0c0 0.006 0 0.013 0 0.020 0 238.587 193.413 432 432 432 119.299 0 227.303-48.357 305.48-126.54v0l62.52-62.12v140.64c0 26.51 21.49 48 48 48s48-21.49 48-48v0z" />
<glyph unicode="&#xe018;" glyph-name="arrow-bend-down-left-bold" data-tags="arrow-bend-down-left-bold" d="M944 736c-0.273-238.477-193.523-431.727-431.974-432h-268.026l110.080-110.040c8.701-8.701 14.083-20.722 14.083-34 0-26.556-21.528-48.083-48.083-48.083-13.278 0-25.299 5.382-34 14.083l-192 192c-8.721 8.692-14.118 20.716-14.118 34s5.396 25.308 14.116 33.999l192.001 192.001c8.701 8.701 20.722 14.083 34 14.083 26.556 0 48.083-21.528 48.083-48.083 0-13.278-5.382-25.299-14.083-34v0l-110.080-109.96h268c185.485 0.205 335.795 150.515 336 335.98v0.020c0 26.51 21.49 48 48 48s48-21.49 48-48v0z" />
<glyph unicode="&#xe01a;" glyph-name="arrow-bend-down-right-bold" data-tags="arrow-bend-down-right-bold" d="M929.96 318.040l-192-192c-8.701-8.701-20.722-14.083-34-14.083-26.556 0-48.083 21.528-48.083 48.083 0 13.278 5.382 25.299 14.083 34l110.040 109.96h-268c-238.477 0.273-431.727 193.523-432 431.974v0.026c0 26.51 21.49 48 48 48s48-21.49 48-48v0c0.205-185.485 150.515-335.795 335.98-336h268.020l-110.080 110.040c-8.701 8.701-14.083 20.722-14.083 34 0 26.556 21.528 48.083 48.083 48.083 13.278 0 25.299-5.382 34-14.083l192-192c8.733-8.694 14.138-20.726 14.138-34.020 0-13.274-5.388-25.29-14.097-33.979l-0.001-0.001z" />
<glyph unicode="&#xe01c;" glyph-name="arrow-bend-left-down-bold" data-tags="arrow-bend-left-down-bold" d="M848 832c0-26.51-21.49-48-48-48v0c-185.485-0.205-335.795-150.515-336-335.98v-268.020l110.040 110.080c8.701 8.701 20.722 14.083 34 14.083 26.556 0 48.083-21.528 48.083-48.083 0-13.278-5.382-25.299-14.083-34l-192-192c-8.692-8.721-20.716-14.118-34-14.118s-25.308 5.396-33.999 14.116l-192.001 192.001c-8.701 8.701-14.083 20.722-14.083 34 0 26.556 21.528 48.083 48.083 48.083 13.278 0 25.299-5.382 34-14.083v0l109.96-110.080v268c0.273 238.477 193.523 431.727 431.974 432h0.026c26.51 0 48-21.49 48-48v0z" />
<glyph unicode="&#xe01e;" glyph-name="arrow-bend-left-up-bold" data-tags="arrow-bend-left-up-bold" d="M848 64c0-26.51-21.49-48-48-48v0c-238.477 0.273-431.727 193.523-432 431.974v268.026l-110.040-109.96c-8.701-8.701-20.722-14.083-34-14.083-26.556 0-48.083 21.528-48.083 48.083 0 13.278 5.382 25.299 14.083 34l192 192c8.692 8.721 20.716 14.118 34 14.118s25.308-5.396 33.999-14.116l192.001-192.001c8.701-8.701 14.083-20.722 14.083-34 0-26.556-21.528-48.083-48.083-48.083-13.278 0-25.299 5.382-34 14.083l-109.96 109.96v-268c0.205-185.485 150.515-335.795 335.98-336h0.020c26.51 0 48-21.49 48-48v0z" />
<glyph unicode="&#xe020;" glyph-name="arrow-bend-right-down-bold" data-tags="arrow-bend-right-down-bold" d="M833.96 222.040l-192-192c-8.692-8.721-20.716-14.118-34-14.118s-25.308 5.396-33.999 14.116l-192.001 192.001c-8.701 8.701-14.083 20.722-14.083 34 0 26.556 21.528 48.083 48.083 48.083 13.278 0 25.299-5.382 34-14.083l110.040-110.040v268c-0.205 185.485-150.515 335.795-335.98 336h-0.020c-26.51 0-48 21.49-48 48s21.49 48 48 48v0c238.477-0.273 431.727-193.523 432-431.974v-268.026l110.040 110.080c8.701 8.701 20.722 14.083 34 14.083 26.556 0 48.083-21.528 48.083-48.083 0-13.278-5.382-25.299-14.083-34v0z" />
<glyph unicode="&#xe022;" glyph-name="arrow-bend-right-up-bold" data-tags="arrow-bend-right-up-bold" d="M833.96 606.040c-8.692-8.721-20.716-14.118-34-14.118s-25.308 5.396-33.999 14.116l-109.961 109.961v-268c-0.273-238.477-193.523-431.727-431.974-432h-0.026c-26.51 0-48 21.49-48 48s21.49 48 48 48v0c185.485 0.205 335.795 150.515 336 335.98v268.020l-110.040-109.96c-8.701-8.701-20.722-14.083-34-14.083-26.556 0-48.083 21.528-48.083 48.083 0 13.278 5.382 25.299 14.083 34l192 192c8.692 8.721 20.716 14.118 34 14.118s25.308-5.396 33.999-14.116l192.001-192.001c8.721-8.692 14.118-20.716 14.118-34s-5.396-25.308-14.116-33.999l-0.001-0.001z" />
<glyph unicode="&#xe024;" glyph-name="arrow-bend-up-left-bold" data-tags="arrow-bend-up-left-bold" d="M944 160c0-26.51-21.49-48-48-48s-48 21.49-48 48v0c-0.205 185.485-150.515 335.795-335.98 336h-268.020l110.080-110.040c8.701-8.701 14.083-20.722 14.083-34 0-26.556-21.528-48.083-48.083-48.083-13.278 0-25.299 5.382-34 14.083l-192 192c-8.721 8.692-14.118 20.716-14.118 34s5.396 25.308 14.116 33.999l192.001 192.001c8.701 8.701 20.722 14.083 34 14.083 26.556 0 48.083-21.528 48.083-48.083 0-13.278-5.382-25.299-14.083-34v0l-110.080-109.96h268c238.477-0.273 431.727-193.523 432-431.974v-0.026z" />
<glyph unicode="&#xe026;" glyph-name="arrow-bend-up-right-bold" data-tags="arrow-bend-up-right-bold" d="M929.96 510.040l-192-192c-8.701-8.701-20.722-14.083-34-14.083-26.556 0-48.083 21.528-48.083 48.083 0 13.278 5.382 25.299 14.083 34l110.040 109.96h-268c-185.485-0.205-335.795-150.515-336-335.98v-0.020c0-26.51-21.49-48-48-48s-48 21.49-48 48v0c0.273 238.477 193.523 431.727 431.974 432h268.026l-109.96 110.080c-8.701 8.701-14.083 20.722-14.083 34 0 26.556 21.528 48.083 48.083 48.083 13.278 0 25.299-5.382 34-14.083l192-192c8.71-8.69 14.098-20.706 14.098-33.98 0-13.314-5.421-25.362-14.175-34.057l-0.003-0.003z" />
<glyph unicode="&#xe028;" glyph-name="arrow-circle-down-bold" data-tags="arrow-circle-down-bold" d="M512 880c-238.587 0-432-193.413-432-432s193.413-432 432-432c238.587 0 432 193.413 432 432v0c-0.273 238.477-193.523 431.727-431.974 432h-0.026zM512 112c-185.568 0-336 150.432-336 336s150.432 336 336 336c185.568 0 336-150.432 336-336v0c-0.205-185.485-150.515-335.795-335.98-336h-0.020zM673.96 449.96c8.721-8.692 14.118-20.716 14.118-34s-5.396-25.308-14.116-33.999l-128.001-128.001c-8.692-8.721-20.716-14.118-34-14.118s-25.308 5.396-33.999 14.116l-128.001 128.001c-8.701 8.701-14.083 20.722-14.083 34 0 26.556 21.528 48.083 48.083 48.083 13.278 0 25.299-5.382 34-14.083v0l46.040-45.96v204c0 26.51 21.49 48 48 48s48-21.49 48-48v0-204l46.040 46.080c8.682 8.662 20.666 14.018 33.9 14.018 13.294 0 25.326-5.404 34.018-14.136l0.002-0.002z" />
<glyph unicode="&#xe02a;" glyph-name="arrow-circle-down-left-bold" data-tags="arrow-circle-down-left-bold" d="M512 880c-238.587 0-432-193.413-432-432s193.413-432 432-432c238.587 0 432 193.413 432 432v0c-0.273 238.477-193.523 431.727-431.974 432h-0.026zM512 112c-185.568 0-336 150.432-336 336s150.432 336 336 336c185.568 0 336-150.432 336-336v0c-0.205-185.485-150.515-335.795-335.98-336h-0.020zM673.96 609.96c8.721-8.692 14.118-20.716 14.118-34s-5.396-25.308-14.116-33.999l-173.961-173.961h76c26.51 0 48-21.49 48-48s-21.49-48-48-48v0h-192c-26.51 0-48 21.49-48 48v0 192c0 26.51 21.49 48 48 48s48-21.49 48-48v0-76l174.040 174.080c8.682 8.662 20.666 14.018 33.9 14.018 13.294 0 25.326-5.404 34.018-14.136l0.002-0.002z" />
<glyph unicode="&#xe02c;" glyph-name="arrow-circle-down-right-bold" data-tags="arrow-circle-down-right-bold" d="M512 880c-238.587 0-432-193.413-432-432s193.413-432 432-432c238.587 0 432 193.413 432 432v0c-0.273 238.477-193.523 431.727-431.974 432h-0.026zM512 112c-185.568 0-336 150.432-336 336s150.432 336 336 336c185.568 0 336-150.432 336-336v0c-0.205-185.485-150.515-335.795-335.98-336h-0.020zM688 512v-192c0-26.51-21.49-48-48-48v0h-192c-26.51 0-48 21.49-48 48s21.49 48 48 48v0h76l-173.96 174.040c-8.701 8.701-14.083 20.722-14.083 34 0 26.556 21.528 48.083 48.083 48.083 13.278 0 25.299-5.382 34-14.083l173.96-174.040v76c0 26.51 21.49 48 48 48s48-21.49 48-48v0z" />
<glyph unicode="&#xe02e;" glyph-name="arrow-circle-right-bold" data-tags="arrow-circle-right-bold" d="M512 880c-238.587 0-432-193.413-432-432s193.413-432 432-432c238.587 0 432 193.413 432 432v0c-0.273 238.477-193.523 431.727-431.974 432h-0.026zM512 112c-185.568 0-336 150.432-336 336s150.432 336 336 336c185.568 0 336-150.432 336-336v0c-0.205-185.485-150.515-335.795-335.98-336h-0.020zM705.96 481.96c8.721-8.692 14.118-20.716 14.118-34s-5.396-25.308-14.116-33.999l-128.001-128.001c-8.701-8.701-20.722-14.083-34-14.083-26.556 0-48.083 21.528-48.083 48.083 0 13.278 5.382 25.299 14.083 34l46.040 46.040h-204c-26.51 0-48 21.49-48 48s21.49 48 48 48v0h204l-46.080 46.040c-8.701 8.701-14.083 20.722-14.083 34 0 26.556 21.528 48.083 48.083 48.083 13.278 0 25.299-5.382 34-14.083v0z" />
<glyph unicode="&#xe030;" glyph-name="arrow-circle-up-bold" data-tags="arrow-circle-up-bold" d="M512 880c-238.587 0-432-193.413-432-432s193.413-432 432-432c238.587 0 432 193.413 432 432v0c-0.273 238.477-193.523 431.727-431.974 432h-0.026zM512 112c-185.568 0-336 150.432-336 336s150.432 336 336 336c185.568 0 336-150.432 336-336v0c-0.205-185.485-150.515-335.795-335.98-336h-0.020zM673.96 513.96c8.701-8.701 14.083-20.722 14.083-34 0-26.556-21.528-48.083-48.083-48.083-13.278 0-25.299 5.382-34 14.083v0l-45.96 46.040v-204c0-26.51-21.49-48-48-48s-48 21.49-48 48v0 204l-46.040-46.080c-8.701-8.701-20.722-14.083-34-14.083-26.556 0-48.083 21.528-48.083 48.083 0 13.278 5.382 25.299 14.083 34l128 128c8.692 8.721 20.716 14.118 34 14.118s25.308-5.396 33.999-14.116l0.001-0.001z" />
<glyph unicode="&#xe032;" glyph-name="arrow-circle-up-left-bold" data-tags="arrow-circle-up-left-bold" d="M512 880c-238.587 0-432-193.413-432-432s193.413-432 432-432c238.587 0 432 193.413 432 432v0c-0.273 238.477-193.523 431.727-431.974 432h-0.026zM512 112c-185.568 0-336 150.432-336 336s150.432 336 336 336c185.568 0 336-150.432 336-336v0c-0.205-185.485-150.515-335.795-335.98-336h-0.020zM673.96 353.96c8.701-8.701 14.083-20.722 14.083-34 0-26.556-21.528-48.083-48.083-48.083-13.278 0-25.299 5.382-34 14.083l-173.96 174.040v-76c0-26.51-21.49-48-48-48s-48 21.49-48 48v0 192c0 26.51 21.49 48 48 48v0h192c26.51 0 48-21.49 48-48s-21.49-48-48-48v0h-76z" />
<glyph unicode="&#xe034;" glyph-name="arrow-circle-up-right-bold" data-tags="arrow-circle-up-right-bold" d="M512 880c-238.587 0-432-193.413-432-432s193.413-432 432-432c238.587 0 432 193.413 432 432v0c-0.273 238.477-193.523 431.727-431.974 432h-0.026zM512 112c-185.568 0-336 150.432-336 336s150.432 336 336 336c185.568 0 336-150.432 336-336v0c-0.205-185.485-150.515-335.795-335.98-336h-0.020zM688 576v-192c0-26.51-21.49-48-48-48s-48 21.49-48 48v0 76l-174.040-174.080c-8.701-8.701-20.722-14.083-34-14.083-26.556 0-48.083 21.528-48.083 48.083 0 13.278 5.382 25.299 14.083 34l174.040 174.080h-76c-26.51 0-48 21.49-48 48s21.49 48 48 48v0h192c26.51 0 48-21.49 48-48v0z" />
<glyph unicode="&#xe036;" glyph-name="arrow-clockwise-bold" data-tags="arrow-clockwise-bold" d="M976 736v-192c0-26.51-21.49-48-48-48v0h-192c-26.51 0-48 21.49-48 48s21.49 48 48 48v0h68.4l-76 69.52c-0.52 0.48-1.040 0.96-1.52 1.48-55.007 54.974-130.98 88.974-214.895 88.974-167.895 0-304-136.105-304-304 0-166.493 133.843-301.726 299.803-303.972l0.212-0.002h4c0.216-0.001 0.472-0.001 0.728-0.001 80.602 0 153.831 31.564 208.003 83.005l-0.131-0.124c8.582 8.123 20.198 13.118 32.98 13.118 26.519 0 48.018-21.498 48.018-48.018 0-13.737-5.769-26.127-15.015-34.879l-0.022-0.021c-71.149-67.541-167.55-109.081-273.653-109.081-0.319 0-0.637 0-0.955 0.001h-5.431c-218.476 3.177-394.362 181.028-394.362 399.96 0 220.914 179.086 400 400 400 109.98 0 209.594-44.386 281.904-116.222l-0.022 0.021 85.96-78.64v82.88c0 26.51 21.49 48 48 48s48-21.49 48-48v0z" />
<glyph unicode="&#xe038;" glyph-name="arrow-counter-clockwise-bold" data-tags="arrow-counter-clockwise-bold" d="M912 448c0-0.011 0-0.023 0-0.036 0-219.030-176.044-396.942-394.356-399.961l-0.284-0.003h-5.36c-0.249-0.001-0.543-0.001-0.838-0.001-106.114 0-202.517 41.573-273.812 109.321l0.17-0.16c-9.273 8.771-15.044 21.162-15.044 34.9 0 26.512 21.492 48.004 48.004 48.004 12.774 0 24.382-4.989 32.982-13.125l-0.022 0.021c54.32-51.368 127.818-82.949 208.692-82.949 167.895 0 304 136.105 304 304s-136.105 304-304 304c-83.953 0-159.958-34.031-214.972-89.051v0c-0.52-0.52-1-1-1.56-1.48l-76.040-69.48h68.44c26.51 0 48-21.49 48-48s-21.49-48-48-48v0h-192c-26.51 0-48 21.49-48 48v0 192c0 26.51 21.49 48 48 48s48-21.49 48-48v0-82.88l85.92 78.64c72.309 71.932 172.002 116.397 282.080 116.397 220.914 0 400-179.086 400-400 0-0.055 0-0.11 0-0.165v0.008z" />
<glyph unicode="&#xe03a;" glyph-name="arrow-bend-double-up-left-bold" data-tags="arrow-bend-double-up-left-bold" d="M353.96 385.96c8.701-8.701 14.083-20.722 14.083-34 0-26.556-21.528-48.083-48.083-48.083-13.278 0-25.299 5.382-34 14.083l-192 192c-8.721 8.692-14.118 20.716-14.118 34s5.396 25.308 14.116 33.999l192.001 192.001c8.701 8.701 20.722 14.083 34 14.083 26.556 0 48.083-21.528 48.083-48.083 0-13.278-5.382-25.299-14.083-34l-157.96-157.96zM512 592h-44l110.080 110.080c8.701 8.701 14.083 20.722 14.083 34 0 26.556-21.528 48.083-48.083 48.083-13.278 0-25.299-5.382-34-14.083l-192-192c-8.721-8.692-14.118-20.716-14.118-34s5.396-25.308 14.116-33.999l192.001-192.001c8.701-8.701 20.722-14.083 34-14.083 26.556 0 48.083 21.528 48.083 48.083 0 13.278-5.382 25.299-14.083 34v0l-110.080 109.92h44c185.485-0.205 335.795-150.515 336-335.98v-0.020c0-26.51 21.49-48 48-48s48 21.49 48 48v0c-0.273 238.477-193.523 431.727-431.974 432h-0.026z" />
<glyph unicode="&#xe03c;" glyph-name="arrow-bend-double-up-right-bold" data-tags="arrow-bend-double-up-right-bold" d="M929.96 510.040l-192-192c-8.701-8.701-20.722-14.083-34-14.083-26.556 0-48.083 21.528-48.083 48.083 0 13.278 5.382 25.299 14.083 34l158.040 157.96-157.96 158.080c-8.701 8.701-14.083 20.722-14.083 34 0 26.556 21.528 48.083 48.083 48.083 13.278 0 25.299-5.382 34-14.083l192-192c8.71-8.69 14.098-20.706 14.098-33.98 0-13.314-5.421-25.362-14.175-34.057l-0.003-0.003zM705.96 578.040l-192 192c-8.701 8.701-20.722 14.083-34 14.083-26.556 0-48.083-21.528-48.083-48.083 0-13.278 5.382-25.299 14.083-34l110.040-110.040h-44c-238.477-0.273-431.727-193.523-432-431.974v-0.026c0-26.51 21.49-48 48-48s48 21.49 48 48v0c0.205 185.485 150.515 335.795 335.98 336h44.020l-110.080-110.040c-8.701-8.701-14.083-20.722-14.083-34 0-26.556 21.528-48.083 48.083-48.083 13.278 0 25.299 5.382 34 14.083l192 192c8.733 8.694 14.138 20.726 14.138 34.020 0 13.274-5.388 25.29-14.097 33.979l-0.001 0.001z" />
<glyph unicode="&#xe03e;" glyph-name="arrow-down-bold" data-tags="arrow-down-bold" d="M833.96 350.040l-288-288c-8.692-8.721-20.716-14.118-34-14.118s-25.308 5.396-33.999 14.116l-288.001 288.001c-8.701 8.701-14.083 20.722-14.083 34 0 26.556 21.528 48.083 48.083 48.083 13.278 0 25.299-5.382 34-14.083l206.040-206.040v588c0 26.51 21.49 48 48 48s48-21.49 48-48v0-588l206.040 206.080c8.701 8.701 20.722 14.083 34 14.083 26.556 0 48.083-21.528 48.083-48.083 0-13.278-5.382-25.299-14.083-34v0z" />
<glyph unicode="&#xe040;" glyph-name="arrow-down-left-bold" data-tags="arrow-down-left-bold" d="M801.96 670.080l-429.96-430.080h300c26.51 0 48-21.49 48-48s-21.49-48-48-48v0h-416c-26.51 0-48 21.49-48 48v0 416c0 26.51 21.49 48 48 48s48-21.49 48-48v0-300l430.040 429.96c8.701 8.701 20.722 14.083 34 14.083 26.556 0 48.083-21.528 48.083-48.083 0-13.278-5.382-25.299-14.083-34v0z" />
<glyph unicode="&#xe042;" glyph-name="arrow-down-right-bold" data-tags="arrow-down-right-bold" d="M816 608v-416c0-26.51-21.49-48-48-48v0h-416c-26.51 0-48 21.49-48 48s21.49 48 48 48v0h300l-429.96 430.080c-8.701 8.701-14.083 20.722-14.083 34 0 26.556 21.528 48.083 48.083 48.083 13.278 0 25.299-5.382 34-14.083l429.96-430.080v300c0 26.51 21.49 48 48 48s48-21.49 48-48v0z" />
<glyph unicode="&#xe044;" glyph-name="arrow-elbow-down-left-bold" data-tags="arrow-elbow-down-left-bold" d="M816 832v-576c0-26.51-21.49-48-48-48v0h-460l110.080-110.040c8.701-8.701 14.083-20.722 14.083-34 0-26.556-21.528-48.083-48.083-48.083-13.278 0-25.299 5.382-34 14.083l-192 192c-8.721 8.692-14.118 20.716-14.118 34s5.396 25.308 14.116 33.999l192.001 192.001c8.701 8.701 20.722 14.083 34 14.083 26.556 0 48.083-21.528 48.083-48.083 0-13.278-5.382-25.299-14.083-34v0l-110.080-109.96h412v528c0 26.51 21.49 48 48 48s48-21.49 48-48v0z" />
<glyph unicode="&#xe046;" glyph-name="arrow-elbow-down-right-bold" data-tags="arrow-elbow-down-right-bold" d="M897.96 222.040l-192-192c-8.701-8.701-20.722-14.083-34-14.083-26.556 0-48.083 21.528-48.083 48.083 0 13.278 5.382 25.299 14.083 34l110.040 109.96h-460c-26.51 0-48 21.49-48 48v0 576c0 26.51 21.49 48 48 48s48-21.49 48-48v0-528h412l-110.080 110.040c-8.701 8.701-14.083 20.722-14.083 34 0 26.556 21.528 48.083 48.083 48.083 13.278 0 25.299-5.382 34-14.083l192-192c8.733-8.694 14.138-20.726 14.138-34.020 0-13.274-5.388-25.29-14.097-33.979l-0.001-0.001z" />
<glyph unicode="&#xe048;" glyph-name="arrow-elbow-left-bold" data-tags="arrow-elbow-left-bold" d="M961.96 542.040l-384-384c-8.692-8.721-20.716-14.118-34-14.118s-25.308 5.396-33.999 14.116l-365.961 365.961v-172c0-26.51-21.49-48-48-48s-48 21.49-48 48v0 288c0 26.51 21.49 48 48 48v0h288c26.51 0 48-21.49 48-48s-21.49-48-48-48v0h-172l332-332 350.040 350.080c8.701 8.701 20.722 14.083 34 14.083 26.556 0 48.083-21.528 48.083-48.083 0-13.278-5.382-25.299-14.083-34v0z" />
<glyph unicode="&#xe04a;" glyph-name="arrow-elbow-left-down-bold" data-tags="arrow-elbow-left-down-bold" d="M976 672c0-26.51-21.49-48-48-48v0h-528v-412l110.040 110.080c8.701 8.701 20.722 14.083 34 14.083 26.556 0 48.083-21.528 48.083-48.083 0-13.278-5.382-25.299-14.083-34l-192-192c-8.692-8.721-20.716-14.118-34-14.118s-25.308 5.396-33.999 14.116l-192.001 192.001c-8.701 8.701-14.083 20.722-14.083 34 0 26.556 21.528 48.083 48.083 48.083 13.278 0 25.299-5.382 34-14.083v0l109.96-110.080v460c0 26.51 21.49 48 48 48v0h576c26.51 0 48-21.49 48-48v0z" />
<glyph unicode="&#xe04c;" glyph-name="arrow-elbow-left-up-bold" data-tags="arrow-elbow-left-up-bold" d="M976 192c0-26.51-21.49-48-48-48v0h-576c-26.51 0-48 21.49-48 48v0 460l-110.040-109.96c-8.701-8.701-20.722-14.083-34-14.083-26.556 0-48.083 21.528-48.083 48.083 0 13.278 5.382 25.299 14.083 34l192 192c8.692 8.721 20.716 14.118 34 14.118s25.308-5.396 33.999-14.116l192.001-192.001c8.701-8.701 14.083-20.722 14.083-34 0-26.556-21.528-48.083-48.083-48.083-13.278 0-25.299 5.382-34 14.083l-109.96 109.96v-412h528c26.51 0 48-21.49 48-48v0z" />
<glyph unicode="&#xe04e;" glyph-name="arrow-elbow-right-bold" data-tags="arrow-elbow-right-bold" d="M976 640v-288c0-26.51-21.49-48-48-48s-48 21.49-48 48v0 172l-366.040-366.080c-8.692-8.721-20.716-14.118-34-14.118s-25.308 5.396-33.999 14.116l-384.001 384.001c-8.701 8.701-14.083 20.722-14.083 34 0 26.556 21.528 48.083 48.083 48.083 13.278 0 25.299-5.382 34-14.083l350.040-349.92 332 332h-172c-26.51 0-48 21.49-48 48s21.49 48 48 48v0h288c26.51 0 48-21.49 48-48v0z" />
<glyph unicode="&#xe050;" glyph-name="arrow-elbow-right-down-bold" data-tags="arrow-elbow-right-down-bold" d="M929.96 286.040l-192-192c-8.692-8.721-20.716-14.118-34-14.118s-25.308 5.396-33.999 14.116l-192.001 192.001c-8.701 8.701-14.083 20.722-14.083 34 0 26.556 21.528 48.083 48.083 48.083 13.278 0 25.299-5.382 34-14.083l110.040-110.040v412h-528c-26.51 0-48 21.49-48 48s21.49 48 48 48v0h576c26.51 0 48-21.49 48-48v0-460l110.040 110.080c8.701 8.701 20.722 14.083 34 14.083 26.556 0 48.083-21.528 48.083-48.083 0-13.278-5.382-25.299-14.083-34v0z" />
<glyph unicode="&#xe052;" glyph-name="arrow-elbow-right-up-bold" data-tags="arrow-elbow-right-up-bold" d="M897.96 542.040c-8.692-8.721-20.716-14.118-34-14.118s-25.308 5.396-33.999 14.116l-109.961 109.961v-460c0-26.51-21.49-48-48-48v0h-576c-26.51 0-48 21.49-48 48s21.49 48 48 48v0h528v412l-110.040-110.080c-8.701-8.701-20.722-14.083-34-14.083-26.556 0-48.083 21.528-48.083 48.083 0 13.278 5.382 25.299 14.083 34l192 192c8.692 8.721 20.716 14.118 34 14.118s25.308-5.396 33.999-14.116l192.001-192.001c8.686-8.686 14.058-20.686 14.058-33.94s-5.372-25.254-14.058-33.94v0z" />
<glyph unicode="&#xe054;" glyph-name="arrow-elbow-up-left-bold" data-tags="arrow-elbow-up-left-bold" d="M816 640v-576c0-26.51-21.49-48-48-48s-48 21.49-48 48v0 528h-412l110.080-110.040c8.701-8.701 14.083-20.722 14.083-34 0-26.556-21.528-48.083-48.083-48.083-13.278 0-25.299 5.382-34 14.083l-192 192c-8.721 8.692-14.118 20.716-14.118 34s5.396 25.308 14.116 33.999l192.001 192.001c8.701 8.701 20.722 14.083 34 14.083 26.556 0 48.083-21.528 48.083-48.083 0-13.278-5.382-25.299-14.083-34v0l-110.080-109.96h460c26.51 0 48-21.49 48-48v0z" />
<glyph unicode="&#xe056;" glyph-name="arrow-elbow-up-right-bold" data-tags="arrow-elbow-up-right-bold" d="M897.96 606.040l-192-192c-8.701-8.701-20.722-14.083-34-14.083-26.556 0-48.083 21.528-48.083 48.083 0 13.278 5.382 25.299 14.083 34l110.040 109.96h-412v-528c0-26.51-21.49-48-48-48s-48 21.49-48 48v0 576c0 26.51 21.49 48 48 48v0h460l-109.96 110.040c-8.701 8.701-14.083 20.722-14.083 34 0 26.556 21.528 48.083 48.083 48.083 13.278 0 25.299-5.382 34-14.083l192-192c8.698-8.688 14.078-20.696 14.078-33.96 0-13.304-5.413-25.344-14.156-34.038l-0.002-0.002z" />
<glyph unicode="&#xe058;" glyph-name="arrow-left-bold" data-tags="arrow-left-bold" d="M912 448c0-26.51-21.49-48-48-48v0h-588l206.080-206.040c8.701-8.701 14.083-20.722 14.083-34 0-26.556-21.528-48.083-48.083-48.083-13.278 0-25.299 5.382-34 14.083l-288 288c-8.721 8.692-14.118 20.716-14.118 34s5.396 25.308 14.116 33.999l288.001 288.001c8.701 8.701 20.722 14.083 34 14.083 26.556 0 48.083-21.528 48.083-48.083 0-13.278-5.382-25.299-14.083-34l-206.080-205.96h588c26.51 0 48-21.49 48-48v0z" />
<glyph unicode="&#xe05a;" glyph-name="arrow-circle-left-bold" data-tags="arrow-circle-left-bold" d="M512 880c-238.587 0-432-193.413-432-432s193.413-432 432-432c238.587 0 432 193.413 432 432v0c-0.273 238.477-193.523 431.727-431.974 432h-0.026zM512 112c-185.568 0-336 150.432-336 336s150.432 336 336 336c185.568 0 336-150.432 336-336v0c-0.205-185.485-150.515-335.795-335.98-336h-0.020zM720 448c0-26.51-21.49-48-48-48v0h-204l46.080-46.040c8.701-8.701 14.083-20.722 14.083-34 0-26.556-21.528-48.083-48.083-48.083-13.278 0-25.299 5.382-34 14.083l-128 128c-8.721 8.692-14.118 20.716-14.118 34s5.396 25.308 14.116 33.999l128.001 128.001c8.701 8.701 20.722 14.083 34 14.083 26.556 0 48.083-21.528 48.083-48.083 0-13.278-5.382-25.299-14.083-34v0l-46.080-45.96h204c26.51 0 48-21.49 48-48v0z" />
<glyph unicode="&#xe05c;" glyph-name="arrow-line-down-bold" data-tags="arrow-line-down-bold" d="M190.040 510.040c-8.701 8.701-14.083 20.722-14.083 34 0 26.556 21.528 48.083 48.083 48.083 13.278 0 25.299-5.382 34-14.083l205.96-206.040v460c0 26.51 21.49 48 48 48s48-21.49 48-48v0-460l206.040 206.080c8.701 8.701 20.722 14.083 34 14.083 26.556 0 48.083-21.528 48.083-48.083 0-13.278-5.382-25.299-14.083-34l-288-288c-8.692-8.721-20.716-14.118-34-14.118s-25.308 5.396-33.999 14.116l-0.001 0.001zM864 144h-704c-26.51 0-48-21.49-48-48s21.49-48 48-48v0h704c26.51 0 48 21.49 48 48s-21.49 48-48 48v0z" />
<glyph unicode="&#xe05e;" glyph-name="arrow-line-down-left-bold" data-tags="arrow-line-down-left-bold" d="M944 768c0-26.51-21.49-48-48-48v0h-704c-26.51 0-48 21.49-48 48s21.49 48 48 48v0h704c26.51 0 48-21.49 48-48v0zM702.040 609.96l-366.040-365.96v268c0 26.51-21.49 48-48 48s-48-21.49-48-48v0-384c0-26.51 21.49-48 48-48v0h384c26.51 0 48 21.49 48 48s-21.49 48-48 48v0h-268l366.080 366.040c8.701 8.701 14.083 20.722 14.083 34 0 26.556-21.528 48.083-48.083 48.083-13.278 0-25.299-5.382-34-14.083v0z" />
<glyph unicode="&#xe060;" glyph-name="arrow-line-down-right-bold" data-tags="arrow-line-down-right-bold" d="M912 800c0-26.51-21.49-48-48-48v0h-704c-26.51 0-48 21.49-48 48s21.49 48 48 48v0h704c26.51 0 48-21.49 48-48v0zM768 592c-26.51 0-48-21.49-48-48v0-268l-366.040 365.96c-8.701 8.701-20.722 14.083-34 14.083-26.556 0-48.083-21.528-48.083-48.083 0-13.278 5.382-25.299 14.083-34l366.040-365.96h-268c-26.51 0-48-21.49-48-48s21.49-48 48-48v0h384c26.51 0 48 21.49 48 48v0 384c0 26.51-21.49 48-48 48v0z" />
<glyph unicode="&#xe062;" glyph-name="arrow-line-left-bold" data-tags="arrow-line-left-bold" d="M944 448c0-26.51-21.49-48-48-48v0h-460l206.080-206.040c8.701-8.701 14.083-20.722 14.083-34 0-26.556-21.528-48.083-48.083-48.083-13.278 0-25.299 5.382-34 14.083l-288 288c-8.721 8.692-14.118 20.716-14.118 34s5.396 25.308 14.116 33.999l288.001 288.001c8.701 8.701 20.722 14.083 34 14.083 26.556 0 48.083-21.528 48.083-48.083 0-13.278-5.382-25.299-14.083-34l-206.080-205.96h460c26.51 0 48-21.49 48-48v0zM160 848c-26.51 0-48-21.49-48-48v0-704c0-26.51 21.49-48 48-48s48 21.49 48 48v0 704c0 26.51-21.49 48-48 48v0z" />
<glyph unicode="&#xe064;" glyph-name="arrow-line-right-bold" data-tags="arrow-line-right-bold" d="M737.96 481.96c8.721-8.692 14.118-20.716 14.118-34s-5.396-25.308-14.116-33.999l-288.001-288.001c-8.701-8.701-20.722-14.083-34-14.083-26.556 0-48.083 21.528-48.083 48.083 0 13.278 5.382 25.299 14.083 34l206.040 206.040h-460c-26.51 0-48 21.49-48 48s21.49 48 48 48v0h460l-205.96 206.040c-8.701 8.701-14.083 20.722-14.083 34 0 26.556 21.528 48.083 48.083 48.083 13.278 0 25.299-5.382 34-14.083v0zM864 848c-26.51 0-48-21.49-48-48v0-704c0-26.51 21.49-48 48-48s48 21.49 48 48v0 704c0 26.51-21.49 48-48 48v0z" />
<glyph unicode="&#xe066;" glyph-name="arrow-line-up-bold" data-tags="arrow-line-up-bold" d="M833.96 385.96c8.701-8.701 14.083-20.722 14.083-34 0-26.556-21.528-48.083-48.083-48.083-13.278 0-25.299 5.382-34 14.083l-205.96 206.040v-460c0-26.51-21.49-48-48-48s-48 21.49-48 48v0 460l-206.040-205.96c-8.701-8.701-20.722-14.083-34-14.083-26.556 0-48.083 21.528-48.083 48.083 0 13.278 5.382 25.299 14.083 34l288 288c8.692 8.721 20.716 14.118 34 14.118s25.308-5.396 33.999-14.116l0.001-0.001zM864 848h-704c-26.51 0-48-21.49-48-48s21.49-48 48-48v0h704c26.51 0 48 21.49 48 48s-21.49 48-48 48v0z" />
<glyph unicode="&#xe068;" glyph-name="arrow-line-up-left-bold" data-tags="arrow-line-up-left-bold" d="M944 128c0-26.51-21.49-48-48-48v0h-704c-26.51 0-48 21.49-48 48s21.49 48 48 48v0h704c26.51 0 48-21.49 48-48v0zM288 336c26.51 0 48 21.49 48 48v0 268l366.040-366.080c8.701-8.701 20.722-14.083 34-14.083 26.556 0 48.083 21.528 48.083 48.083 0 13.278-5.382 25.299-14.083 34l-366.040 366.080h268c26.51 0 48 21.49 48 48s-21.49 48-48 48v0h-384c-26.51 0-48-21.49-48-48v0-384c0-26.51 21.49-48 48-48v0z" />
<glyph unicode="&#xe06a;" glyph-name="arrow-line-up-right-bold" data-tags="arrow-line-up-right-bold" d="M912 96c0-26.51-21.49-48-48-48v0h-704c-26.51 0-48 21.49-48 48s21.49 48 48 48v0h704c26.51 0 48-21.49 48-48v0zM320 240c0.011 0 0.024 0 0.038 0 13.245 0 25.238 5.365 33.923 14.040v0l366.040 365.96v-268c0-26.51 21.49-48 48-48s48 21.49 48 48v0 384c0 26.51-21.49 48-48 48v0h-384c-26.51 0-48-21.49-48-48s21.49-48 48-48v0h268l-365.96-366.040c-8.698-8.688-14.078-20.696-14.078-33.96 0-26.51 21.49-48 48-48 0.013 0 0.027 0 0.040 0h-0.002z" />
<glyph unicode="&#xe06c;" glyph-name="arrow-right-bold" data-tags="arrow-right-bold" d="M897.96 414.040l-288-288c-8.701-8.701-20.722-14.083-34-14.083-26.556 0-48.083 21.528-48.083 48.083 0 13.278 5.382 25.299 14.083 34l206.040 205.96h-588c-26.51 0-48 21.49-48 48s21.49 48 48 48v0h588l-205.96 206.080c-8.701 8.701-14.083 20.722-14.083 34 0 26.556 21.528 48.083 48.083 48.083 13.278 0 25.299-5.382 34-14.083l288-288c8.71-8.69 14.098-20.706 14.098-33.98 0-13.314-5.421-25.362-14.175-34.057l-0.003-0.003z" />
<glyph unicode="&#xe06e;" glyph-name="arrow-square-down-bold" data-tags="arrow-square-down-bold" d="M832 848h-640c-44.183 0-80-35.817-80-80v0-640c0-44.183 35.817-80 80-80v0h640c44.183 0 80 35.817 80 80v0 640c0 44.183-35.817 80-80 80v0zM816 144h-608v608h608zM350.040 382.040c-8.701 8.701-14.083 20.722-14.083 34 0 26.556 21.528 48.083 48.083 48.083 13.278 0 25.299-5.382 34-14.083v0l45.96-46.040v204c0 26.51 21.49 48 48 48s48-21.49 48-48v0-204l46.040 46.080c8.701 8.701 20.722 14.083 34 14.083 26.556 0 48.083-21.528 48.083-48.083 0-13.278-5.382-25.299-14.083-34l-128-128c-8.692-8.721-20.716-14.118-34-14.118s-25.308 5.396-33.999 14.116l-0.001 0.001z" />
<glyph unicode="&#xe070;" glyph-name="arrow-square-down-left-bold" data-tags="arrow-square-down-left-bold" d="M832 848h-640c-44.183 0-80-35.817-80-80v0-640c0-44.183 35.817-80 80-80v0h640c44.183 0 80 35.817 80 80v0 640c0 44.183-35.817 80-80 80v0zM816 144h-608v608h608zM336 320v192c0 26.51 21.49 48 48 48s48-21.49 48-48v0-76l174.040 174.080c8.701 8.701 20.722 14.083 34 14.083 26.556 0 48.083-21.528 48.083-48.083 0-13.278-5.382-25.299-14.083-34l-174.040-174.080h76c26.51 0 48-21.49 48-48s-21.49-48-48-48v0h-192c-26.51 0-48 21.49-48 48v0z" />
<glyph unicode="&#xe072;" glyph-name="arrow-square-down-right-bold" data-tags="arrow-square-down-right-bold" d="M832 848h-640c-44.183 0-80-35.817-80-80v0-640c0-44.183 35.817-80 80-80v0h640c44.183 0 80 35.817 80 80v0 640c0 44.183-35.817 80-80 80v0zM816 144h-608v608h608zM350.040 542.040c-8.701 8.701-14.083 20.722-14.083 34 0 26.556 21.528 48.083 48.083 48.083 13.278 0 25.299-5.382 34-14.083l173.96-174.040v76c0 26.51 21.49 48 48 48s48-21.49 48-48v0-192c0-26.51-21.49-48-48-48v0h-192c-26.51 0-48 21.49-48 48s21.49 48 48 48v0h76z" />
<glyph unicode="&#xe074;" glyph-name="arrow-square-left-bold" data-tags="arrow-square-left-bold" d="M832 848h-640c-44.183 0-80-35.817-80-80v0-640c0-44.183 35.817-80 80-80v0h640c44.183 0 80 35.817 80 80v0 640c0 44.183-35.817 80-80 80v0zM816 144h-608v608h608zM318.040 414.040c-8.721 8.692-14.118 20.716-14.118 34s5.396 25.308 14.116 33.999l128.001 128.001c8.701 8.701 20.722 14.083 34 14.083 26.556 0 48.083-21.528 48.083-48.083 0-13.278-5.382-25.299-14.083-34l-46.040-46.040h204c26.51 0 48-21.49 48-48s-21.49-48-48-48v0h-204l46.080-46.040c8.701-8.701 14.083-20.722 14.083-34 0-26.556-21.528-48.083-48.083-48.083-13.278 0-25.299 5.382-34 14.083v0z" />
<glyph unicode="&#xe076;" glyph-name="arrow-square-right-bold" data-tags="arrow-square-right-bold" d="M832 848h-640c-44.183 0-80-35.817-80-80v0-640c0-44.183 35.817-80 80-80v0h640c44.183 0 80 35.817 80 80v0 640c0 44.183-35.817 80-80 80v0zM816 144h-608v608h608zM304 448c0 26.51 21.49 48 48 48v0h204l-46.080 46.040c-8.701 8.701-14.083 20.722-14.083 34 0 26.556 21.528 48.083 48.083 48.083 13.278 0 25.299-5.382 34-14.083l128-128c8.721-8.692 14.118-20.716 14.118-34s-5.396-25.308-14.116-33.999l-128.001-128.001c-8.701-8.701-20.722-14.083-34-14.083-26.556 0-48.083 21.528-48.083 48.083 0 13.278 5.382 25.299 14.083 34v0l46.080 45.96h-204c-26.51 0-48 21.49-48 48v0z" />
<glyph unicode="&#xe078;" glyph-name="arrow-square-up-bold" data-tags="arrow-square-up-bold" d="M832 848h-640c-44.183 0-80-35.817-80-80v0-640c0-44.183 35.817-80 80-80v0h640c44.183 0 80 35.817 80 80v0 640c0 44.183-35.817 80-80 80v0zM816 144h-608v608h608zM350.040 446.040c-8.721 8.692-14.118 20.716-14.118 34s5.396 25.308 14.116 33.999l128.001 128.001c8.692 8.721 20.716 14.118 34 14.118s25.308-5.396 33.999-14.116l128.001-128.001c8.701-8.701 14.083-20.722 14.083-34 0-26.556-21.528-48.083-48.083-48.083-13.278 0-25.299 5.382-34 14.083v0l-46.040 45.96v-204c0-26.51-21.49-48-48-48s-48 21.49-48 48v0 204l-46.040-46.080c-8.682-8.662-20.666-14.018-33.9-14.018-13.294 0-25.326 5.404-34.018 14.136l-0.002 0.002z" />
<glyph unicode="&#xe07a;" glyph-name="arrow-square-up-left-bold" data-tags="arrow-square-up-left-bold" d="M832 848h-640c-44.183 0-80-35.817-80-80v0-640c0-44.183 35.817-80 80-80v0h640c44.183 0 80 35.817 80 80v0 640c0 44.183-35.817 80-80 80v0zM816 144h-608v608h608zM336 384v192c0 26.51 21.49 48 48 48v0h192c26.51 0 48-21.49 48-48s-21.49-48-48-48v0h-76l174.080-174.040c8.701-8.701 14.083-20.722 14.083-34 0-26.556-21.528-48.083-48.083-48.083-13.278 0-25.299 5.382-34 14.083l-174.080 174.040v-76c0-26.51-21.49-48-48-48s-48 21.49-48 48v0z" />
<glyph unicode="&#xe07c;" glyph-name="arrow-square-up-right-bold" data-tags="arrow-square-up-right-bold" d="M832 848h-640c-44.183 0-80-35.817-80-80v0-640c0-44.183 35.817-80 80-80v0h640c44.183 0 80 35.817 80 80v0 640c0 44.183-35.817 80-80 80v0zM816 144h-608v608h608zM350.040 286.040c-8.721 8.692-14.118 20.716-14.118 34s5.396 25.308 14.116 33.999l173.961 173.961h-76c-26.51 0-48 21.49-48 48s21.49 48 48 48v0h192c26.51 0 48-21.49 48-48v0-192c0-26.51-21.49-48-48-48s-48 21.49-48 48v0 76l-174.040-174.080c-8.692-8.721-20.716-14.118-34-14.118s-25.308 5.396-33.999 14.116l-0.001 0.001z" />
<glyph unicode="&#xe07e;" glyph-name="arrow-u-down-left-bold" data-tags="arrow-u-down-left-bold" d="M944 512c-0.159-150.157-121.843-271.841-271.985-272h-428.015l110.080-110.040c8.701-8.701 14.083-20.722 14.083-34 0-26.556-21.528-48.083-48.083-48.083-13.278 0-25.299 5.382-34 14.083l-192 192c-8.721 8.692-14.118 20.716-14.118 34s5.396 25.308 14.116 33.999l192.001 192.001c8.701 8.701 20.722 14.083 34 14.083 26.556 0 48.083-21.528 48.083-48.083 0-13.278-5.382-25.299-14.083-34v0l-110.080-109.96h428c97.202 0 176 78.798 176 176s-78.798 176-176 176v0h-352c-26.51 0-48 21.49-48 48s21.49 48 48 48v0h352c150.157-0.159 271.841-121.843 272-271.985v-0.015z" />
<glyph unicode="&#xe080;" glyph-name="arrow-u-down-right-bold" data-tags="arrow-u-down-right-bold" d="M929.96 254.040l-192-192c-8.701-8.701-20.722-14.083-34-14.083-26.556 0-48.083 21.528-48.083 48.083 0 13.278 5.382 25.299 14.083 34l110.040 109.96h-428c-150.221 0-272 121.779-272 272s121.779 272 272 272v0h352c26.51 0 48-21.49 48-48s-21.49-48-48-48v0h-352c-97.202 0-176-78.798-176-176s78.798-176 176-176v0h428l-110.080 110.040c-8.701 8.701-14.083 20.722-14.083 34 0 26.556 21.528 48.083 48.083 48.083 13.278 0 25.299-5.382 34-14.083l192-192c8.733-8.694 14.138-20.726 14.138-34.020 0-13.274-5.388-25.29-14.097-33.979l-0.001-0.001z" />
<glyph unicode="&#xe082;" glyph-name="arrow-u-left-down-bold" data-tags="arrow-u-left-down-bold" d="M848 608v-352c0-26.51-21.49-48-48-48s-48 21.49-48 48v0 352c0 97.202-78.798 176-176 176s-176-78.798-176-176v0-428l110.040 110.080c8.701 8.701 20.722 14.083 34 14.083 26.556 0 48.083-21.528 48.083-48.083 0-13.278-5.382-25.299-14.083-34l-192-192c-8.692-8.721-20.716-14.118-34-14.118s-25.308 5.396-33.999 14.116l-192.001 192.001c-8.701 8.701-14.083 20.722-14.083 34 0 26.556 21.528 48.083 48.083 48.083 13.278 0 25.299-5.382 34-14.083v0l109.96-110.080v428c0 150.221 121.779 272 272 272s272-121.779 272-272v0z" />
<glyph unicode="&#xe084;" glyph-name="arrow-u-left-up-bold" data-tags="arrow-u-left-up-bold" d="M848 640v-352c0-150.221-121.779-272-272-272s-272 121.779-272 272v0 428l-110.040-109.96c-8.701-8.701-20.722-14.083-34-14.083-26.556 0-48.083 21.528-48.083 48.083 0 13.278 5.382 25.299 14.083 34l192 192c8.692 8.721 20.716 14.118 34 14.118s25.308-5.396 33.999-14.116l192.001-192.001c8.701-8.701 14.083-20.722 14.083-34 0-26.556-21.528-48.083-48.083-48.083-13.278 0-25.299 5.382-34 14.083l-109.96 109.96v-428c0-97.202 78.798-176 176-176s176 78.798 176 176v0 352c0 26.51 21.49 48 48 48s48-21.49 48-48v0z" />
<glyph unicode="&#xe086;" glyph-name="arrow-u-right-down-bold" data-tags="arrow-u-right-down-bold" d="M897.96 222.040l-192-192c-8.692-8.721-20.716-14.118-34-14.118s-25.308 5.396-33.999 14.116l-192.001 192.001c-8.701 8.701-14.083 20.722-14.083 34 0 26.556 21.528 48.083 48.083 48.083 13.278 0 25.299-5.382 34-14.083l110.040-110.040v428c0 97.202-78.798 176-176 176s-176-78.798-176-176v0-352c0-26.51-21.49-48-48-48s-48 21.49-48 48v0 352c0 150.221 121.779 272 272 272s272-121.779 272-272v0-428l110.040 110.080c8.701 8.701 20.722 14.083 34 14.083 26.556 0 48.083-21.528 48.083-48.083 0-13.278-5.382-25.299-14.083-34v0z" />
<glyph unicode="&#xe088;" glyph-name="arrow-u-right-up-bold" data-tags="arrow-u-right-up-bold" d="M897.96 606.040c-8.692-8.721-20.716-14.118-34-14.118s-25.308 5.396-33.999 14.116l-109.961 109.961v-428c0-150.221-121.779-272-272-272s-272 121.779-272 272v0 352c0 26.51 21.49 48 48 48s48-21.49 48-48v0-352c0-97.202 78.798-176 176-176s176 78.798 176 176v0 428l-110.040-109.96c-8.701-8.701-20.722-14.083-34-14.083-26.556 0-48.083 21.528-48.083 48.083 0 13.278 5.382 25.299 14.083 34l192 192c8.692 8.721 20.716 14.118 34 14.118s25.308-5.396 33.999-14.116l192.001-192.001c8.721-8.692 14.118-20.716 14.118-34s-5.396-25.308-14.116-33.999l-0.001-0.001z" />
<glyph unicode="&#xe08a;" glyph-name="arrow-u-up-left-bold" data-tags="arrow-u-up-left-bold" d="M944 384c-0.159-150.157-121.843-271.841-271.985-272h-352.015c-26.51 0-48 21.49-48 48s21.49 48 48 48v0h352c97.202 0 176 78.798 176 176s-78.798 176-176 176v0h-428l110.080-110.040c8.701-8.701 14.083-20.722 14.083-34 0-26.556-21.528-48.083-48.083-48.083-13.278 0-25.299 5.382-34 14.083l-192 192c-8.721 8.692-14.118 20.716-14.118 34s5.396 25.308 14.116 33.999l192.001 192.001c8.701 8.701 20.722 14.083 34 14.083 26.556 0 48.083-21.528 48.083-48.083 0-13.278-5.382-25.299-14.083-34v0l-110.080-109.96h428c150.148-0.182 271.818-121.852 272-271.982v-0.018z" />
<glyph unicode="&#xe08c;" glyph-name="arrow-u-up-right-bold" data-tags="arrow-u-up-right-bold" d="M670.040 449.96l109.96 110.040h-428c-97.202 0-176-78.798-176-176s78.798-176 176-176v0h352c26.51 0 48-21.49 48-48s-21.49-48-48-48v0h-352c-150.221 0-272 121.779-272 272s121.779 272 272 272v0h428l-109.96 110.040c-8.701 8.701-14.083 20.722-14.083 34 0 26.556 21.528 48.083 48.083 48.083 13.278 0 25.299-5.382 34-14.083l192-192c8.721-8.692 14.118-20.716 14.118-34s-5.396-25.308-14.116-33.999l-192.001-192.001c-8.701-8.701-20.722-14.083-34-14.083-26.556 0-48.083 21.528-48.083 48.083 0 13.278 5.382 25.299 14.083 34v0z" />
<glyph unicode="&#xe08e;" glyph-name="arrow-up-bold" data-tags="arrow-up-bold" d="M833.96 478.040c-8.692-8.721-20.716-14.118-34-14.118s-25.308 5.396-33.999 14.116l-205.961 205.961v-588c0-26.51-21.49-48-48-48s-48 21.49-48 48v0 588l-206.040-205.96c-8.701-8.701-20.722-14.083-34-14.083-26.556 0-48.083 21.528-48.083 48.083 0 13.278 5.382 25.299 14.083 34l288 288c8.692 8.721 20.716 14.118 34 14.118s25.308-5.396 33.999-14.116l288.001-288.001c8.721-8.692 14.118-20.716 14.118-34s-5.396-25.308-14.116-33.999l-0.001-0.001z" />
<glyph unicode="&#xe090;" glyph-name="arrow-up-left-bold" data-tags="arrow-up-left-bold" d="M801.96 158.040c-8.692-8.721-20.716-14.118-34-14.118s-25.308 5.396-33.999 14.116l-429.961 429.961v-300c0-26.51-21.49-48-48-48s-48 21.49-48 48v0 416c0 26.51 21.49 48 48 48v0h416c26.51 0 48-21.49 48-48s-21.49-48-48-48v0h-300l429.96-430.040c8.698-8.688 14.078-20.696 14.078-33.96s-5.38-25.272-14.077-33.96v0z" />
<glyph unicode="&#xe092;" glyph-name="arrow-up-right-bold" data-tags="arrow-up-right-bold" d="M816 704v-416c0-26.51-21.49-48-48-48s-48 21.49-48 48v0 300l-430.040-429.96c-8.701-8.701-20.722-14.083-34-14.083-26.556 0-48.083 21.528-48.083 48.083 0 13.278 5.382 25.299 14.083 34l430.040 429.96h-300c-26.51 0-48 21.49-48 48s21.49 48 48 48v0h416c26.51 0 48-21.49 48-48v0z" />
<glyph unicode="&#xe094;" glyph-name="arrows-clockwise-bold" data-tags="arrows-clockwise-bold" d="M912 768v-192c0-26.51-21.49-48-48-48v0h-192c-26.51 0-48 21.49-48 48s21.49 48 48 48v0h76l-31.2 31.2c-54.524 54.787-129.907 88.774-213.229 89.040h-1.771c-0.196 0-0.428 0.001-0.661 0.001-82.424 0-157.135-33.025-211.623-86.564l0.044 0.043c-8.647-8.461-20.494-13.681-33.56-13.681-26.51 0-48.001 21.491-48.001 48.001 0 13.444 5.527 25.597 14.433 34.312l0.009 0.008c71.671 70.414 170.017 113.881 278.516 113.881 0.339 0 0.678 0 1.016-0.001h2.028c109.761-0.309 209.016-45.036 280.785-117.144l0.015-0.016 31.2-31.080v76c0 26.51 21.49 48 48 48s48-21.49 48-48v0zM734.44 238.28c-54.444-53.496-129.155-86.521-211.579-86.521-0.274 0-0.549 0-0.823 0.001h-1.677c-83.373 0.266-158.756 34.253-213.268 89.028l-0.012 0.012-31.080 31.2h76c26.51 0 48 21.49 48 48s-21.49 48-48 48v0h-192c-26.51 0-48-21.49-48-48v0-192c0-26.51 21.49-48 48-48s48 21.49 48 48v0 76l31.2-31.2c71.8-72.079 171.055-116.765 280.747-117.040h2.293c0.286-0.001 0.625-0.001 0.964-0.001 108.499 0 206.845 43.467 278.574 113.938l-0.058-0.057c8.914 8.723 14.441 20.876 14.441 34.32 0 26.51-21.491 48.001-48.001 48.001-13.066 0-24.913-5.221-33.569-13.69l0.009 0.008z" />
<glyph unicode="&#xe096;" glyph-name="arrows-counter-clockwise-bold" data-tags="arrows-counter-clockwise-bold" d="M352 528h-192c-26.51 0-48 21.49-48 48v0 192c0 26.51 21.49 48 48 48s48-21.49 48-48v0-76l31.2 31.2c71.8 72.079 171.055 116.765 280.747 117.040h2.293c0.286 0.001 0.625 0.001 0.964 0.001 108.499 0 206.845-43.467 278.574-113.938l-0.058 0.057c8.914-8.723 14.441-20.876 14.441-34.32 0-26.51-21.491-48.001-48.001-48.001-13.066 0-24.913 5.221-33.569 13.69l0.009-0.008c-54.747 53.504-129.721 86.514-212.405 86.514-83.945 0-159.943-34.024-214.955-89.034v0l-31.24-31.2h76c26.51 0 48-21.49 48-48s-21.49-48-48-48v0zM864 368h-192c-26.51 0-48-21.49-48-48s21.49-48 48-48v0h76l-31.2-31.2c-54.524-54.787-129.907-88.774-213.229-89.040h-1.771c-0.232-0.001-0.506-0.001-0.781-0.001-82.424 0-157.136 33.025-211.623 86.564l0.044-0.043c-8.647 8.461-20.494 13.681-33.56 13.681-26.51 0-48.001-21.491-48.001-48.001 0-13.444 5.527-25.597 14.433-34.312l0.009-0.008c71.671-70.414 170.017-113.881 278.516-113.881 0.339 0 0.678 0 1.016 0.001h2.148c109.703 0.354 208.893 45.073 280.625 117.144l0.015 0.016 31.36 31.080v-76c0-26.51 21.49-48 48-48s48 21.49 48 48v0 192c0 26.51-21.49 48-48 48v0z" />
<glyph unicode="&#xe098;" glyph-name="arrows-down-up-bold" data-tags="arrows-down-up-bold" d="M481.96 289.96c8.721-8.692 14.118-20.716 14.118-34s-5.396-25.308-14.116-33.999l-128.001-128.001c-8.692-8.721-20.716-14.118-34-14.118s-25.308 5.396-33.999 14.116l-128.001 128.001c-8.701 8.701-14.083 20.722-14.083 34 0 26.556 21.528 48.083 48.083 48.083 13.278 0 25.299-5.382 34-14.083v0l46.040-45.96v524c0 26.51 21.49 48 48 48s48-21.49 48-48v0-524l46.040 46.080c8.682 8.662 20.666 14.018 33.9 14.018 13.294 0 25.326-5.404 34.018-14.136l0.002-0.002zM865.96 673.96l-128 128c-8.692 8.721-20.716 14.118-34 14.118s-25.308-5.396-33.999-14.116l-128.001-128.001c-8.701-8.701-14.083-20.722-14.083-34 0-26.556 21.528-48.083 48.083-48.083 13.278 0 25.299 5.382 34 14.083l46.040 46.040v-524c0-26.51 21.49-48 48-48s48 21.49 48 48v0 524l46.040-46.080c8.701-8.701 20.722-14.083 34-14.083 26.556 0 48.083 21.528 48.083 48.083 0 13.278-5.382 25.299-14.083 34v0z" />
<glyph unicode="&#xe09a;" glyph-name="arrows-in-bold" data-tags="arrows-in-bold" d="M560 544v160c0 26.51 21.49 48 48 48s48-21.49 48-48v0-44l142.040 142.080c8.701 8.701 20.722 14.083 34 14.083 26.556 0 48.083-21.528 48.083-48.083 0-13.278-5.382-25.299-14.083-34l-142.040-142.080h44c26.51 0 48-21.49 48-48s-21.49-48-48-48v0h-160c-26.51 0-48 21.49-48 48v0zM416 400h-160c-26.51 0-48-21.49-48-48s21.49-48 48-48v0h44l-141.96-142.040c-8.701-8.701-14.083-20.722-14.083-34 0-26.556 21.528-48.083 48.083-48.083 13.278 0 25.299 5.382 34 14.083l141.96 142.040v-44c0-26.51 21.49-48 48-48s48 21.49 48 48v0 160c0 26.51-21.49 48-48 48v0zM724 304h44c26.51 0 48 21.49 48 48s-21.49 48-48 48v0h-160c-26.51 0-48-21.49-48-48v0-160c0-26.51 21.49-48 48-48s48 21.49 48 48v0 44l142.040-142.080c8.701-8.701 20.722-14.083 34-14.083 26.556 0 48.083 21.528 48.083 48.083 0 13.278-5.382 25.299-14.083 34v0zM416 752c-26.51 0-48-21.49-48-48v0-44l-142.040 141.96c-8.701 8.701-20.722 14.083-34 14.083-26.556 0-48.083-21.528-48.083-48.083 0-13.278 5.382-25.299 14.083-34l142.040-141.96h-44c-26.51 0-48-21.49-48-48s21.49-48 48-48v0h160c26.51 0 48 21.49 48 48v0 160c0 26.51-21.49 48-48 48v0z" />
<glyph unicode="&#xe09c;" glyph-name="arrows-in-cardinal-bold" data-tags="arrows-in-cardinal-bold" d="M350.040 670.040c-8.701 8.701-14.083 20.722-14.083 34 0 26.556 21.528 48.083 48.083 48.083 13.278 0 25.299-5.382 34-14.083v0l45.96-46.040v172c0 26.51 21.49 48 48 48s48-21.49 48-48v0-172l46.040 46.080c8.701 8.701 20.722 14.083 34 14.083 26.556 0 48.083-21.528 48.083-48.083 0-13.278-5.382-25.299-14.083-34l-128-128c-8.692-8.721-20.716-14.118-34-14.118s-25.308 5.396-33.999 14.116l-0.001 0.001zM546.040 354.040c-8.692 8.721-20.716 14.118-34 14.118s-25.308-5.396-33.999-14.116l-128.001-128.001c-8.701-8.701-14.083-20.722-14.083-34 0-26.556 21.528-48.083 48.083-48.083 13.278 0 25.299 5.382 34 14.083l45.96 45.96v-172c0-26.51 21.49-48 48-48s48 21.49 48 48v0 172l46.040-46.080c8.701-8.701 20.722-14.083 34-14.083 26.556 0 48.083 21.528 48.083 48.083 0 13.278-5.382 25.299-14.083 34v0zM928 496h-172l46.080 46.040c8.701 8.701 14.083 20.722 14.083 34 0 26.556-21.528 48.083-48.083 48.083-13.278 0-25.299-5.382-34-14.083l-128-128c-8.721-8.692-14.118-20.716-14.118-34s5.396-25.308 14.116-33.999l128.001-128.001c8.701-8.701 20.722-14.083 34-14.083 26.556 0 48.083 21.528 48.083 48.083 0 13.278-5.382 25.299-14.083 34v0l-46.080 45.96h172c26.51 0 48 21.49 48 48s-21.49 48-48 48v0zM417.96 481.96l-128 128c-8.701 8.701-20.722 14.083-34 14.083-26.556 0-48.083-21.528-48.083-48.083 0-13.278 5.382-25.299 14.083-34v0l46.040-45.96h-172c-26.51 0-48-21.49-48-48s21.49-48 48-48v0h172l-45.96-46.040c-8.701-8.701-14.083-20.722-14.083-34 0-26.556 21.528-48.083 48.083-48.083 13.278 0 25.299 5.382 34 14.083l128 128c8.698 8.688 14.078 20.696 14.078 33.96 0 13.304-5.413 25.344-14.156 34.038l-0.002 0.002z" />
<glyph unicode="&#xe09e;" glyph-name="arrows-in-simple-bold" data-tags="arrows-in-simple-bold" d="M865.96 734.080l-157.96-158.080h76c26.51 0 48-21.49 48-48s-21.49-48-48-48v0h-192c-26.51 0-48 21.49-48 48v0 192c0 26.51 21.49 48 48 48s48-21.49 48-48v0-76l158.040 158.080c8.701 8.701 20.722 14.083 34 14.083 26.556 0 48.083-21.528 48.083-48.083 0-13.278-5.382-25.299-14.083-34v0zM432 416h-192c-26.51 0-48-21.49-48-48s21.49-48 48-48v0h76l-157.96-158.040c-8.701-8.701-14.083-20.722-14.083-34 0-26.556 21.528-48.083 48.083-48.083 13.278 0 25.299 5.382 34 14.083l157.96 158.040v-76c0-26.51 21.49-48 48-48s48 21.49 48 48v0 192c0 26.51-21.49 48-48 48v0z" />
<glyph unicode="&#xe0a0;" glyph-name="arrows-left-right-bold" data-tags="arrows-left-right-bold" d="M865.96 222.040l-128-128c-8.701-8.701-20.722-14.083-34-14.083-26.556 0-48.083 21.528-48.083 48.083 0 13.278 5.382 25.299 14.083 34v0l46.040 45.96h-524c-26.51 0-48 21.49-48 48s21.49 48 48 48v0h524l-46.080 46.040c-8.701 8.701-14.083 20.722-14.083 34 0 26.556 21.528 48.083 48.083 48.083 13.278 0 25.299-5.382 34-14.083l128-128c8.733-8.694 14.138-20.726 14.138-34.020 0-13.274-5.388-25.29-14.097-33.979l-0.001-0.001zM285.96 478.040c8.701-8.701 20.722-14.083 34-14.083 26.556 0 48.083 21.528 48.083 48.083 0 13.278-5.382 25.299-14.083 34l-45.96 45.96h524c26.51 0 48 21.49 48 48s-21.49 48-48 48v0h-524l45.96 46.040c8.701 8.701 14.083 20.722 14.083 34 0 26.556-21.528 48.083-48.083 48.083-13.278 0-25.299-5.382-34-14.083l-128-128c-8.721-8.692-14.118-20.716-14.118-34s5.396-25.308 14.116-33.999l0.001-0.001z" />
<glyph unicode="&#xe0a2;" glyph-name="arrows-out-bold" data-tags="arrows-out-bold" d="M880 768v-192c0-26.51-21.49-48-48-48s-48 21.49-48 48v0 76l-142.040-142.080c-8.701-8.701-20.722-14.083-34-14.083-26.556 0-48.083 21.528-48.083 48.083 0 13.278 5.382 25.299 14.083 34l142.040 142.080h-76c-26.51 0-48 21.49-48 48s21.49 48 48 48v0h192c26.51 0 48-21.49 48-48v0zM382.040 385.96l-142.040-141.96v76c0 26.51-21.49 48-48 48s-48-21.49-48-48v0-192c0-26.51 21.49-48 48-48v0h192c26.51 0 48 21.49 48 48s-21.49 48-48 48v0h-76l142.080 142.040c8.701 8.701 14.083 20.722 14.083 34 0 26.556-21.528 48.083-48.083 48.083-13.278 0-25.299-5.382-34-14.083v0zM832 368c-26.51 0-48-21.49-48-48v0-76l-142.040 142.080c-8.701 8.701-20.722 14.083-34 14.083-26.556 0-48.083-21.528-48.083-48.083 0-13.278 5.382-25.299 14.083-34l142.040-142.080h-76c-26.51 0-48-21.49-48-48s21.49-48 48-48v0h192c26.51 0 48 21.49 48 48v0 192c0 26.51-21.49 48-48 48v0zM308 720h76c26.51 0 48 21.49 48 48s-21.49 48-48 48v0h-192c-26.51 0-48-21.49-48-48v0-192c0-26.51 21.49-48 48-48s48 21.49 48 48v0 76l142.040-142.080c8.701-8.701 20.722-14.083 34-14.083 26.556 0 48.083 21.528 48.083 48.083 0 13.278-5.382 25.299-14.083 34v0z" />
<glyph unicode="&#xe0a4;" glyph-name="arrows-out-cardinal-bold" data-tags="arrows-out-cardinal-bold" d="M350.040 702.040c-8.721 8.692-14.118 20.716-14.118 34s5.396 25.308 14.116 33.999l128.001 128.001c8.692 8.721 20.716 14.118 34 14.118s25.308-5.396 33.999-14.116l128.001-128.001c8.701-8.701 14.083-20.722 14.083-34 0-26.556-21.528-48.083-48.083-48.083-13.278 0-25.299 5.382-34 14.083v0l-46.040 45.96v-172c0-26.51-21.49-48-48-48s-48 21.49-48 48v0 172l-46.040-45.96c-8.688-8.698-20.696-14.078-33.96-14.078s-25.272 5.38-33.96 14.077v0zM606.040 194.040l-46.040-46.040v172c0 26.51-21.49 48-48 48s-48-21.49-48-48v0-172l-46.040 46.080c-8.701 8.701-20.722 14.083-34 14.083-26.556 0-48.083-21.528-48.083-48.083 0-13.278 5.382-25.299 14.083-34l128-128c8.692-8.721 20.716-14.118 34-14.118s25.308 5.396 33.999 14.116l128.001 128.001c8.701 8.701 14.083 20.722 14.083 34 0 26.556-21.528 48.083-48.083 48.083-13.278 0-25.299-5.382-34-14.083v0zM962.040 482.040l-128 128c-8.701 8.701-20.722 14.083-34 14.083-26.556 0-48.083-21.528-48.083-48.083 0-13.278 5.382-25.299 14.083-34v0l45.96-46.040h-172c-26.51 0-48-21.49-48-48s21.49-48 48-48v0h172l-46.080-46.040c-8.701-8.701-14.083-20.722-14.083-34 0-26.556 21.528-48.083 48.083-48.083 13.278 0 25.299 5.382 34 14.083l128 128c8.733 8.694 14.138 20.726 14.138 34.020 0 13.274-5.388 25.29-14.097 33.979l-0.001 0.001zM212 400h172c26.51 0 48 21.49 48 48s-21.49 48-48 48v0h-172l46.080 46.040c8.701 8.701 14.083 20.722 14.083 34 0 26.556-21.528 48.083-48.083 48.083-13.278 0-25.299-5.382-34-14.083l-128-128c-8.721-8.692-14.118-20.716-14.118-34s5.396-25.308 14.116-33.999l128.001-128.001c8.701-8.701 20.722-14.083 34-14.083 26.556 0 48.083 21.528 48.083 48.083 0 13.278-5.382 25.299-14.083 34v0z" />
<glyph unicode="&#xe0a6;" glyph-name="arrows-out-simple-bold" data-tags="arrows-out-simple-bold" d="M880 768v-192c0-26.51-21.49-48-48-48s-48 21.49-48 48v0 76l-158.040-158.080c-8.701-8.701-20.722-14.083-34-14.083-26.556 0-48.083 21.528-48.083 48.083 0 13.278 5.382 25.299 14.083 34l158.040 158.080h-76c-26.51 0-48 21.49-48 48s21.49 48 48 48v0h192c26.51 0 48-21.49 48-48v0zM398.040 401.96l-158.040-157.96v76c0 26.51-21.49 48-48 48s-48-21.49-48-48v0-192c0-26.51 21.49-48 48-48v0h192c26.51 0 48 21.49 48 48s-21.49 48-48 48v0h-76l158.080 158.040c8.701 8.701 14.083 20.722 14.083 34 0 26.556-21.528 48.083-48.083 48.083-13.278 0-25.299-5.382-34-14.083v0z" />
<glyph unicode="&#xe0a8;" glyph-name="article-bold" data-tags="article-bold" d="M864 816h-704c-44.183 0-80-35.817-80-80v0-576c0-44.183 35.817-80 80-80v0h704c44.183 0 80 35.817 80 80v0 576c0 44.183-35.817 80-80 80v0zM848 176h-672v544h672zM272 592c0 26.51 21.49 48 48 48v0h384c26.51 0 48-21.49 48-48s-21.49-48-48-48v0h-384c-26.51 0-48 21.49-48 48v0zM272 448c0 26.51 21.49 48 48 48v0h384c26.51 0 48-21.49 48-48s-21.49-48-48-48v0h-384c-26.51 0-48 21.49-48 48v0zM272 304c0 26.51 21.49 48 48 48v0h384c26.51 0 48-21.49 48-48s-21.49-48-48-48v0h-384c-26.51 0-48 21.49-48 48v0z" />
<glyph unicode="&#xe0aa;" glyph-name="asterisk-bold" data-tags="asterisk-bold" d="M873.16 231.32c-8.538-14.070-23.775-23.327-41.173-23.327-9.125 0-17.655 2.546-24.919 6.967l0.212-0.12-247.28 148.4v-267.24c0-26.51-21.49-48-48-48s-48 21.49-48 48v0 267.24l-247.28-148.4c-7.050-4.298-15.578-6.842-24.7-6.842-26.511 0-48.002 21.491-48.002 48.002 0 17.389 9.246 32.618 23.090 41.040l0.212 0.12 251.4 150.84-251.4 150.84c-14.056 8.542-23.302 23.771-23.302 41.16 0 26.511 21.491 48.002 48.002 48.002 9.122 0 17.65-2.545 24.912-6.962l-0.212 0.12 247.28-148.4v267.24c0 26.51 21.49 48 48 48s48-21.49 48-48v0-267.24l247.28 148.4c7.050 4.298 15.578 6.842 24.7 6.842 26.511 0 48.002-21.491 48.002-48.002 0-17.389-9.246-32.618-23.090-41.040l-0.212-0.12-251.4-150.84 251.4-150.84c14.060-8.54 23.309-23.771 23.309-41.163 0-9.113-2.539-17.633-6.949-24.89l0.12 0.213z" />
<glyph unicode="&#xe0ac;" glyph-name="at-bold" data-tags="at-bold" d="M512 880c-238.587 0-432-193.413-432-432s193.413-432 432-432v0c89.080 0 182.76 26.92 250.56 72 13.003 8.731 21.446 23.379 21.446 40 0 26.524-21.502 48.026-48.026 48.026-9.903 0-19.107-2.998-26.752-8.135l0.172 0.109c-52-34.52-127.56-56-197.4-56-185.568 0-336 150.432-336 336s150.432 336 336 336c185.568 0 336-150.432 336-336v0c0-37.16-6.68-68.32-18.76-87.8-10.56-16.96-24-24.2-45.24-24.2s-34.68 7.24-45.24 24.2c-12 19.48-18.76 50.64-18.76 87.8v160c-0.003 26.508-21.492 47.995-48 47.995-21.572 0-39.82-14.23-45.87-33.815l-0.090-0.34c-32.172 21.413-71.707 34.168-114.222 34.168-114.875 0-208-93.125-208-208s93.125-208 208-208c58.734 0 111.782 24.344 149.604 63.492l0.057 0.060c27.72-40.76 69.76-63.56 122.52-63.56 98.68 0 160 79.68 160 208-0.273 238.477-193.523 431.727-431.974 432h-0.026zM512 336c-61.856 0-112 50.144-112 112s50.144 112 112 112c61.856 0 112-50.144 112-112v0c0-61.856-50.144-112-112-112v0z" />
<glyph unicode="&#xe0ae;" glyph-name="backspace-bold" data-tags="backspace-bold" d="M864 816h-589.88c-28.963-0.075-54.315-15.461-68.4-38.488l-0.2-0.352-182.68-304.48c-4.291-7.045-6.831-15.566-6.831-24.68s2.54-17.635 6.951-24.893l-0.12 0.213 182.68-304.48c14.285-23.379 39.637-38.765 68.589-38.84h589.891c44.183 0 80 35.817 80 80v0 576c0 44.183-35.817 80-80 80v0zM848 176h-564.8l-163.2 272 163.2 272h564.8zM414.040 385.96l61.96 62.040-62.080 62.040c-8.701 8.701-14.083 20.722-14.083 34 0 26.556 21.528 48.083 48.083 48.083 13.278 0 25.299-5.382 34-14.083l62.080-62.040 62.040 62.080c8.701 8.701 20.722 14.083 34 14.083 26.556 0 48.083-21.528 48.083-48.083 0-13.278-5.382-25.299-14.083-34l-62.040-62.080 62.080-62.040c8.701-8.701 14.083-20.722 14.083-34 0-26.556-21.528-48.083-48.083-48.083-13.278 0-25.299 5.382-34 14.083l-62.080 62.040-62.040-62.080c-8.701-8.701-20.722-14.083-34-14.083-26.556 0-48.083 21.528-48.083 48.083 0 13.278 5.382 25.299 14.083 34v0z" />
<glyph unicode="&#xe0b0;" glyph-name="bag-bold" data-tags="bag-bold" d="M864 720h-144.68c-8.968 107.413-98.36 191.195-207.32 191.195s-198.352-83.781-207.269-190.437l-0.051-0.758h-144.68c-44.183 0-80-35.817-80-80v0-480c0-44.183 35.817-80 80-80v0h704c44.183 0 80 35.817 80 80v0 480c0 44.183-35.817 80-80 80v0zM512 816c56.206-0.006 102.74-41.413 110.765-95.387l0.075-0.613h-221.68c8.1 54.587 54.634 95.994 110.839 96h0.001zM848 176h-672v448h128v-48c0-26.51 21.49-48 48-48s48 21.49 48 48v0 48h224v-48c0-26.51 21.49-48 48-48s48 21.49 48 48v0 48h128z" />
<glyph unicode="&#xe0b2;" glyph-name="bandaids-bold" data-tags="bandaids-bold" d="M760.92 448l99.52 99.56c32.833 32.004 53.199 76.663 53.199 126.079 0 97.202-78.798 176-176 176-49.416 0-94.075-20.366-126.043-53.162l-0.036-0.037-99.56-99.52-99.56 99.52c-32.004 32.833-76.663 53.199-126.079 53.199-97.202 0-176-78.798-176-176 0-49.416 20.366-94.075 53.162-126.043l0.037-0.036 99.52-99.56-99.52-99.56c-32.833-32.004-53.199-76.663-53.199-126.079 0-97.202 78.798-176 176-176 49.416 0 94.075 20.366 126.043 53.162l0.036 0.037 99.56 99.52 99.56-99.52c32.004-32.833 76.663-53.199 126.079-53.199 97.202 0 176 78.798 176 176 0 49.416-20.366 94.075-53.162 126.043l-0.037 0.036zM679.44 728.56v0c14.568 15.068 34.963 24.423 57.543 24.423 44.183 0 80-35.817 80-80 0-22.58-9.355-42.976-24.401-57.521l-0.022-0.022-99.56-99.44-113 113zM625.12 448l-113.12-113.12-113.12 113.12 113.12 113.12zM231.44 615.44c-15.068 14.568-24.423 34.963-24.423 57.543 0 44.183 35.817 80 80 80 22.58 0 42.976-9.355 57.521-24.401l0.022-0.022 99.44-99.56-113-113zM344.56 167.44c-14.568-15.068-34.963-24.423-57.543-24.423-44.183 0-80 35.817-80 80 0 22.58 9.355 42.976 24.401 57.521l0.022 0.022 99.56 99.44 113-113zM792.56 167.44c-14.476-14.472-34.473-23.423-56.56-23.423s-42.084 8.951-56.56 23.423v0l-99.44 99.56 113 113 99.56-99.56c14.472-14.476 23.423-34.473 23.423-56.56s-8.951-42.084-23.423-56.56v0z" />
<glyph unicode="&#xe0b4;" glyph-name="bank-bold" data-tags="bank-bold" d="M96 528h80v-192h-48c-26.51 0-48-21.49-48-48s21.49-48 48-48v0h768c26.51 0 48 21.49 48 48s-21.49 48-48 48v0h-48v192h80c0.001 0 0.003 0 0.004 0 26.51 0 48 21.49 48 48 0 17.2-9.047 32.287-22.641 40.762l-0.203 0.118-416 256c-7.156 4.471-15.849 7.122-25.16 7.122s-18.004-2.651-25.363-7.24l0.203 0.118-416-256c-13.797-8.593-22.844-23.68-22.844-40.88 0-26.51 21.49-48 48-48 0.001 0 0.003 0 0.004 0v0zM272 528h96v-192h-96zM560 528v-192h-96v192zM752 336h-96v192h96zM512 775.64l246.4-151.64h-492.8zM1008 128c0-26.51-21.49-48-48-48v0h-896c-26.51 0-48 21.49-48 48s21.49 48 48 48v0h896c26.51 0 48-21.49 48-48v0z" />
<glyph unicode="&#xe0b6;" glyph-name="barbell-bold" data-tags="barbell-bold" d="M976 496v112c0 44.183-35.817 80-80 80v0h-64v16c0 44.183-35.817 80-80 80v0h-96c-44.183 0-80-35.817-80-80v0-208h-128v208c0 44.183-35.817 80-80 80v0h-96c-44.183 0-80-35.817-80-80v0-16h-64c-44.183 0-80-35.817-80-80v0-112c-26.51 0-48-21.49-48-48s21.49-48 48-48v0-112c0-44.183 35.817-80 80-80v0h64v-16c0-44.183 35.817-80 80-80v0h96c44.183 0 80 35.817 80 80v0 208h128v-208c0-44.183 35.817-80 80-80v0h96c44.183 0 80 35.817 80 80v0 16h64c44.183 0 80 35.817 80 80v0 112c26.51 0 48 21.49 48 48s-21.49 48-48 48v0zM144 304v288h48v-288zM352 208h-64v480h64zM736 208h-64v480h64zM880 304h-48v288h48z" />
<glyph unicode="&#xe0b8;" glyph-name="barcode-bold" data-tags="barcode-bold" d="M928 752v-160c0-26.51-21.49-48-48-48s-48 21.49-48 48v0 112h-112c-26.51 0-48 21.49-48 48s21.49 48 48 48v0h160c26.51 0 48-21.49 48-48v0zM304 192h-112v112c0 26.51-21.49 48-48 48s-48-21.49-48-48v0-160c0-26.51 21.49-48 48-48v0h160c26.51 0 48 21.49 48 48s-21.49 48-48 48v0zM880 352c-26.51 0-48-21.49-48-48v0-112h-112c-26.51 0-48-21.49-48-48s21.49-48 48-48v0h160c26.51 0 48 21.49 48 48v0 160c0 26.51-21.49 48-48 48v0zM144 544c26.51 0 48 21.49 48 48v0 112h112c26.51 0 48 21.49 48 48s-21.49 48-48 48v0h-160c-26.51 0-48-21.49-48-48v0-160c0-26.51 21.49-48 48-48v0zM352 640c-26.51 0-48-21.49-48-48v0-288c0-26.51 21.49-48 48-48s48 21.49 48 48v0 288c0 26.51-21.49 48-48 48v0zM720 304v288c0 26.51-21.49 48-48 48s-48-21.49-48-48v0-288c0-26.51 21.49-48 48-48s48 21.49 48 48v0zM512 640c-26.51 0-48-21.49-48-48v0-288c0-26.51 21.49-48 48-48s48 21.49 48 48v0 288c0 26.51-21.49 48-48 48v0z" />
<glyph unicode="&#xe0ba;" glyph-name="battery-charging-bold" data-tags="battery-charging-bold" d="M784 752h-672c-61.856 0-112-50.144-112-112v0-384c0-61.856 50.144-112 112-112v0h672c61.856 0 112 50.144 112 112v0 384c0 61.856-50.144 112-112 112v0zM800 256c0-8.837-7.163-16-16-16v0h-672c-8.837 0-16 7.163-16 16v0 384c0 8.837 7.163 16 16 16v0h672c8.837 0 16-7.163 16-16v0zM1024 544v-192c0-26.51-21.49-48-48-48s-48 21.49-48 48v0 192c0 26.51 21.49 48 48 48s48-21.49 48-48v0zM569.52 472c4.043-6.885 6.431-15.163 6.431-24s-2.388-17.115-6.553-24.227l0.123 0.227-64-112c-8.356-14.843-24.010-24.705-41.968-24.705-26.51 0-48 21.49-48 48 0 8.96 2.455 17.347 6.73 24.525l-0.122-0.22 23.12 40.4h-45.28c-0.033 0-0.072 0-0.111 0-26.51 0-48 21.49-48 48 0 8.837 2.388 17.116 6.553 24.227l-0.123-0.227 64 112c8.464 14.505 23.952 24.096 41.68 24.096 26.563 0 48.096-21.533 48.096-48.096 0-8.835-2.382-17.113-6.539-24.228l0.123 0.228-22.96-40h45.28c17.654-0.019 33.074-9.565 41.397-23.774l0.123-0.226z" />
<glyph unicode="&#xe0bc;" glyph-name="battery-charging-vertical-bold" data-tags="battery-charging-vertical-bold" d="M616.84 425.24c4.496-7.171 7.162-15.886 7.162-25.224 0-7.836-1.878-15.234-5.208-21.768l0.126 0.272-64-128c-7.943-16.192-24.308-27.142-43.231-27.142-26.51 0-48 21.49-48 48 0 8.075 1.994 15.685 5.517 22.363l-0.126-0.262 29.24 58.52h-50.32c-26.507 0.003-47.994 21.492-47.994 48 0 7.83 1.875 15.222 5.2 21.752l-0.126-0.272 64 128c7.943 16.192 24.308 27.142 43.231 27.142 26.51 0 48-21.49 48-48 0-8.075-1.994-15.685-5.517-22.363l0.126 0.262-29.24-58.52h50.32c0.003 0 0.008 0 0.012 0 17.165 0 32.226-9.010 40.711-22.559l0.117-0.201zM416 864h192c26.51 0 48 21.49 48 48s-21.49 48-48 48v0h-192c-26.51 0-48-21.49-48-48s21.49-48 48-48v0zM816 720v-672c0-61.856-50.144-112-112-112v0h-384c-61.856 0-112 50.144-112 112v0 672c0 61.856 50.144 112 112 112v0h384c61.856 0 112-50.144 112-112v0zM720 720c0 8.837-7.163 16-16 16v0h-384c-8.837 0-16-7.163-16-16v0-672c0-8.837 7.163-16 16-16v0h384c8.837 0 16 7.163 16 16v0z" />
<glyph unicode="&#xe0be;" glyph-name="battery-empty-bold" data-tags="battery-empty-bold" d="M784 752h-672c-61.856 0-112-50.144-112-112v0-384c0-61.856 50.144-112 112-112v0h672c61.856 0 112 50.144 112 112v0 384c0 61.856-50.144 112-112 112v0zM800 256c0-8.837-7.163-16-16-16v0h-672c-8.837 0-16 7.163-16 16v0 384c0 8.837 7.163 16 16 16v0h672c8.837 0 16-7.163 16-16v0zM1024 544v-192c0-26.51-21.49-48-48-48s-48 21.49-48 48v0 192c0 26.51 21.49 48 48 48s48-21.49 48-48v0z" />
<glyph unicode="&#xe0c0;" glyph-name="battery-full-bold" data-tags="battery-full-bold" d="M784 752h-672c-61.856 0-112-50.144-112-112v0-384c0-61.856 50.144-112 112-112v0h672c61.856 0 112 50.144 112 112v0 384c0 61.856-50.144 112-112 112v0zM800 256c0-8.837-7.163-16-16-16v0h-672c-8.837 0-16 7.163-16 16v0 384c0 8.837 7.163 16 16 16v0h672c8.837 0 16-7.163 16-16v0zM736 544v-192c0-26.51-21.49-48-48-48s-48 21.49-48 48v0 192c0 26.51 21.49 48 48 48s48-21.49 48-48v0zM576 544v-192c0-26.51-21.49-48-48-48s-48 21.49-48 48v0 192c0 26.51 21.49 48 48 48s48-21.49 48-48v0zM416 544v-192c0-26.51-21.49-48-48-48s-48 21.49-48 48v0 192c0 26.51 21.49 48 48 48s48-21.49 48-48v0zM256 544v-192c0-26.51-21.49-48-48-48s-48 21.49-48 48v0 192c0 26.51 21.49 48 48 48s48-21.49 48-48v0zM1024 544v-192c0-26.51-21.49-48-48-48s-48 21.49-48 48v0 192c0 26.51 21.49 48 48 48s48-21.49 48-48v0z" />
<glyph unicode="&#xe0c2;" glyph-name="battery-high-bold" data-tags="battery-high-bold" d="M784 752h-672c-61.856 0-112-50.144-112-112v0-384c0-61.856 50.144-112 112-112v0h672c61.856 0 112 50.144 112 112v0 384c0 61.856-50.144 112-112 112v0zM800 256c0-8.837-7.163-16-16-16v0h-672c-8.837 0-16 7.163-16 16v0 384c0 8.837 7.163 16 16 16v0h672c8.837 0 16-7.163 16-16v0zM576 544v-192c0-26.51-21.49-48-48-48s-48 21.49-48 48v0 192c0 26.51 21.49 48 48 48s48-21.49 48-48v0zM416 544v-192c0-26.51-21.49-48-48-48s-48 21.49-48 48v0 192c0 26.51 21.49 48 48 48s48-21.49 48-48v0zM256 544v-192c0-26.51-21.49-48-48-48s-48 21.49-48 48v0 192c0 26.51 21.49 48 48 48s48-21.49 48-48v0zM1024 544v-192c0-26.51-21.49-48-48-48s-48 21.49-48 48v0 192c0 26.51 21.49 48 48 48s48-21.49 48-48v0z" />
<glyph unicode="&#xe0c4;" glyph-name="battery-low-bold" data-tags="battery-low-bold" d="M784 752h-672c-61.856 0-112-50.144-112-112v0-384c0-61.856 50.144-112 112-112v0h672c61.856 0 112 50.144 112 112v0 384c0 61.856-50.144 112-112 112v0zM800 256c0-8.837-7.163-16-16-16v0h-672c-8.837 0-16 7.163-16 16v0 384c0 8.837 7.163 16 16 16v0h672c8.837 0 16-7.163 16-16v0zM256 544v-192c0-26.51-21.49-48-48-48s-48 21.49-48 48v0 192c0 26.51 21.49 48 48 48s48-21.49 48-48v0zM1024 544v-192c0-26.51-21.49-48-48-48s-48 21.49-48 48v0 192c0 26.51 21.49 48 48 48s48-21.49 48-48v0z" />
<glyph unicode="&#xe0c6;" glyph-name="battery-medium-bold" data-tags="battery-medium-bold" d="M784 752h-672c-61.856 0-112-50.144-112-112v0-384c0-61.856 50.144-112 112-112v0h672c61.856 0 112 50.144 112 112v0 384c0 61.856-50.144 112-112 112v0zM800 256c0-8.837-7.163-16-16-16v0h-672c-8.837 0-16 7.163-16 16v0 384c0 8.837 7.163 16 16 16v0h672c8.837 0 16-7.163 16-16v0zM416 544v-192c0-26.51-21.49-48-48-48s-48 21.49-48 48v0 192c0 26.51 21.49 48 48 48s48-21.49 48-48v0zM256 544v-192c0-26.51-21.49-48-48-48s-48 21.49-48 48v0 192c0 26.51 21.49 48 48 48s48-21.49 48-48v0zM1024 544v-192c0-26.51-21.49-48-48-48s-48 21.49-48 48v0 192c0 26.51 21.49 48 48 48s48-21.49 48-48v0z" />
<glyph unicode="&#xe0c8;" glyph-name="battery-warning-bold" data-tags="battery-warning-bold" d="M784 752h-672c-61.856 0-112-50.144-112-112v0-384c0-61.856 50.144-112 112-112v0h672c61.856 0 112 50.144 112 112v0 384c0 61.856-50.144 112-112 112v0zM800 256c0-8.837-7.163-16-16-16v0h-672c-8.837 0-16 7.163-16 16v0 384c0 8.837 7.163 16 16 16v0h672c8.837 0 16-7.163 16-16v0zM1024 544v-192c0-26.51-21.49-48-48-48s-48 21.49-48 48v0 192c0 26.51 21.49 48 48 48s48-21.49 48-48v0zM400 496v64c0 26.51 21.49 48 48 48s48-21.49 48-48v0-64c0-26.51-21.49-48-48-48s-48 21.49-48 48v0zM512 352c0-35.346-28.654-64-64-64s-64 28.654-64 64c0 35.346 28.654 64 64 64v0c35.346 0 64-28.654 64-64v0z" />
<glyph unicode="&#xe0ca;" glyph-name="battery-warning-vertical-bold" data-tags="battery-warning-vertical-bold" d="M464 416v144c0 26.51 21.49 48 48 48s48-21.49 48-48v0-144c0-26.51-21.49-48-48-48s-48 21.49-48 48v0zM512 320c-35.346 0-64-28.654-64-64s28.654-64 64-64c35.346 0 64 28.654 64 64v0c0 35.346-28.654 64-64 64v0zM416 864h192c26.51 0 48 21.49 48 48s-21.49 48-48 48v0h-192c-26.51 0-48-21.49-48-48s21.49-48 48-48v0zM816 720v-672c0-61.856-50.144-112-112-112v0h-384c-61.856 0-112 50.144-112 112v0 672c0 61.856 50.144 112 112 112v0h384c61.856 0 112-50.144 112-112v0zM720 720c0 8.837-7.163 16-16 16v0h-384c-8.837 0-16-7.163-16-16v0-672c0-8.837 7.163-16 16-16v0h384c8.837 0 16 7.163 16 16v0z" />
<glyph unicode="&#xe0cc;" glyph-name="bed-bold" data-tags="bed-bold" d="M848 688h-704v80c0 26.51-21.49 48-48 48s-48-21.49-48-48v0-640c0-26.51 21.49-48 48-48s48 21.49 48 48v0 112h784v-112c0-26.51 21.49-48 48-48s48 21.49 48 48v0 384c-0.114 97.156-78.844 175.886-175.989 176h-0.011zM400 336h-256v256h256zM928 336h-432v256h352c44.183 0 80-35.817 80-80v0z" />
<glyph unicode="&#xe0ce;" glyph-name="bell-bold" data-tags="bell-bold" d="M901.16 296.28c-34.72 59.72-53.16 145.44-53.16 247.72 0 185.568-150.432 336-336 336s-336-150.432-336-336v0c0-102.32-18.36-188-53.080-247.72-6.845-11.573-10.89-25.506-10.89-40.383 0-14.68 3.938-28.44 10.816-40.282l-0.206 0.384c13.865-24.063 39.446-40.002 68.75-40.002 0.214 0 0.429 0.001 0.643 0.003h144.687c8.419-90.115 83.677-160.096 175.28-160.096s166.861 69.981 175.227 159.397l0.053 0.699h144.72c0.146-0.001 0.318-0.002 0.49-0.002 29.303 0 54.884 15.938 68.546 39.619l0.203 0.382c6.733 11.499 10.709 25.32 10.709 40.071 0 14.807-4.006 28.677-10.994 40.587l0.205-0.378zM512 112c-0.005 0-0.011 0-0.016 0-38.519 0-70.68 27.223-78.292 63.479l-0.092 0.521h156.8c-7.704-36.777-39.865-64-78.384-64-0.006 0-0.011 0-0.017 0h0.001zM218.64 272c35.4 72 53.36 163.44 53.36 272 0 132.548 107.452 240 240 240s240-107.452 240-240v0c0-108.52 17.92-200 53.32-272z" />
<glyph unicode="&#xe0d0;" glyph-name="bell-simple-bold" data-tags="bell-simple-bold" d="M901.16 296.28c-34.72 59.72-53.16 145.44-53.16 247.72 0 185.568-150.432 336-336 336s-336-150.432-336-336v0c0-102.32-18.36-188-53.080-247.72-6.845-11.573-10.89-25.506-10.89-40.383 0-14.68 3.938-28.44 10.816-40.282l-0.206 0.384c13.865-24.063 39.446-40.002 68.75-40.002 0.214 0 0.429 0.001 0.643 0.003h639.967c0.146-0.001 0.318-0.002 0.49-0.002 29.303 0 54.884 15.938 68.546 39.619l0.203 0.382c6.733 11.499 10.709 25.32 10.709 40.071 0 14.807-4.006 28.677-10.994 40.587l0.205-0.378zM218.64 272c35.4 72 53.36 163.44 53.36 272 0 132.548 107.452 240 240 240s240-107.452 240-240v0c0-108.52 17.92-200 53.32-272zM688 64c0-26.51-21.49-48-48-48v0h-256c-26.51 0-48 21.49-48 48s21.49 48 48 48v0h256c26.51 0 48-21.49 48-48v0z" />
<glyph unicode="&#xe0d2;" glyph-name="bell-simple-slash-bold" data-tags="bell-simple-slash-bold" d="M867.52 128.28l-640 704c-8.834 9.925-21.644 16.146-35.907 16.146-26.51 0-48-21.49-48-48 0-12.651 4.894-24.159 12.893-32.734l-0.026 0.028 59.2-65.16c-24.986-45.707-39.681-100.127-39.681-157.979 0-0.204 0-0.409 0.001-0.613v0.032c0-102.32-18.36-188-53.080-247.72-6.82-11.557-10.85-25.465-10.85-40.313 0-14.708 3.953-28.493 10.855-40.35l-0.206 0.383c13.846-24.062 39.413-40.002 68.703-40.002 0.203 0 0.405 0.001 0.608 0.002h502.369l102.080-112.28c8.788-9.421 21.275-15.294 35.133-15.294 26.51 0 48 21.49 48 48 0 12.247-4.586 23.422-12.135 31.902l0.042-0.048zM218.72 272c35.36 72 53.28 163.44 53.28 272 0 0.082 0 0.179 0 0.276 0 29.009 5.161 56.814 14.614 82.544l-0.534-1.66 321.040-353.16zM688 64c0-26.51-21.49-48-48-48v0h-256c-26.51 0-48 21.49-48 48s21.49 48 48 48v0h256c26.51 0 48-21.49 48-48v0zM355.56 790.6c-2.403 5.524-3.801 11.959-3.801 18.72 0 19.749 11.927 36.712 28.97 44.080l0.311 0.12c38.646 16.799 83.661 26.572 130.96 26.572 185.568 0 336-150.432 336-336 0-0.032 0-0.065 0-0.097v0.005c0-74.72 9.52-139.72 28.28-193.12 1.738-4.764 2.744-10.265 2.744-16 0-26.523-21.501-48.024-48.024-48.024-20.788 0-38.49 13.208-45.174 31.689l-0.106 0.334c-22.4 63.84-33.72 139.52-33.72 225.12 0 0.027 0 0.059 0 0.091 0 132.548-107.452 240-240 240-33.776 0-65.922-6.977-95.076-19.569l1.556 0.598c-5.524-2.403-11.959-3.801-18.72-3.801-19.749 0-36.712 11.927-44.080 28.97l-0.12 0.311z" />
<glyph unicode="&#xe0d4;" glyph-name="bell-slash-bold" data-tags="bell-slash-bold" d="M867.52 128.28l-640 704c-8.834 9.925-21.644 16.146-35.907 16.146-26.51 0-48-21.49-48-48 0-12.651 4.894-24.159 12.893-32.734l-0.026 0.028 59.2-65.16c-24.986-45.707-39.681-100.127-39.681-157.979 0-0.204 0-0.409 0.001-0.613v0.032c0-102.32-18.36-188-53.080-247.72-6.82-11.557-10.85-25.465-10.85-40.313 0-14.708 3.953-28.493 10.855-40.35l-0.206 0.383c13.846-24.062 39.413-40.002 68.703-40.002 0.203 0 0.405 0.001 0.608 0.002h144.729c8.632-89.915 83.791-159.662 175.24-159.662s166.608 69.747 175.184 158.947l0.056 0.714h7.16l102.080-112.28c8.788-9.421 21.275-15.294 35.133-15.294 26.51 0 48 21.49 48 48 0 12.247-4.586 23.422-12.135 31.902l0.042-0.048zM272 544c0 0.082 0 0.179 0 0.276 0 29.009 5.161 56.814 14.614 82.544l-0.534-1.66 321.040-353.16h-388.4c35.36 72 53.28 163.44 53.28 272zM512 112c-0.005 0-0.011 0-0.016 0-38.519 0-70.68 27.223-78.292 63.479l-0.092 0.521h156.8c-7.704-36.777-39.865-64-78.384-64-0.006 0-0.011 0-0.017 0h0.001zM355.56 790.6c-2.403 5.524-3.801 11.959-3.801 18.72 0 19.749 11.927 36.712 28.97 44.080l0.311 0.12c38.646 16.799 83.661 26.572 130.96 26.572 185.568 0 336-150.432 336-336 0-0.032 0-0.065 0-0.097v0.005c0-74.72 9.52-139.72 28.28-193.12 1.738-4.764 2.744-10.265 2.744-16 0-26.523-21.501-48.024-48.024-48.024-20.788 0-38.49 13.208-45.174 31.689l-0.106 0.334c-22.4 63.84-33.72 139.52-33.72 225.12 0 0.027 0 0.059 0 0.091 0 132.548-107.452 240-240 240-33.776 0-65.922-6.977-95.076-19.569l1.556 0.598c-5.524-2.403-11.959-3.801-18.72-3.801-19.749 0-36.712 11.927-44.080 28.97l-0.12 0.311z" />
<glyph unicode="&#xe0d6;" glyph-name="bicycle-bold" data-tags="bicycle-bold" d="M816 528c-0.031 0-0.068 0-0.104 0-21.555 0-42.341-3.29-61.884-9.395l1.469 0.395-79.92 137h92.44c8.837 0 16-7.163 16-16v0c0-26.51 21.49-48 48-48s48 21.49 48 48v0c0 61.856-50.144 112-112 112v0h-176c-26.471-0.051-47.911-21.522-47.911-48 0-8.837 2.388-17.115 6.553-24.227l-0.123 0.227 32.56-56h-144.84l-60.76 104c-8.439 14.424-23.841 23.966-41.475 24h-128.005c-26.51 0-48-21.49-48-48s21.49-48 48-48v0h100.44l44.28-76-56.72-71.56c-25.968 12.475-56.455 19.764-88.646 19.764-115.251 0-208.68-93.429-208.68-208.68s93.429-208.68 208.68-208.68c115.251 0 208.68 93.429 208.68 208.68 0 49.001-16.889 94.057-45.164 129.666l0.329-0.429 33.48 42.28 67.32-115.24c8.058-15.853 24.247-26.526 42.928-26.526 26.51 0 48 21.49 48 48 0 9.966-3.037 19.222-8.236 26.894l0.108-0.169-60.56 104h144.84l33.56-57.52c-39.715-37.948-64.404-91.331-64.404-150.48 0-114.875 93.125-208 208-208s208 93.125 208 208c0 114.875-93.125 208-208 208-0.083 0-0.166 0-0.249 0h0.013zM320 320c0-0.005 0-0.011 0-0.017 0-61.856-50.144-112-112-112s-112 50.144-112 112c0 61.856 50.144 112 112 112 8.922 0 17.601-1.043 25.921-3.015l-0.761 0.152-62.8-79.32c-6.462-8.105-10.368-18.496-10.368-29.8 0-26.514 21.494-48.008 48.008-48.008 15.211 0 28.769 7.074 37.565 18.111l0.075 0.097 62.8 79.32c7.29-14.407 11.56-31.408 11.56-49.407 0-0.040 0-0.080 0-0.12v0.006zM816 208c-61.833 0.030-111.948 50.162-111.948 112 0 23.593 7.295 45.482 19.753 63.535l-0.245-0.375 50.96-87.36c8.629-13.606 23.61-22.506 40.67-22.506 26.51 0 48 21.49 48 48 0 8.316-2.115 16.138-5.835 22.957l0.125-0.251-51 87.36c3.16 0.28 6.32 0.44 9.52 0.44 61.856 0 112-50.144 112-112s-50.144-112-112-112v0z" />
<glyph unicode="&#xe0da;" glyph-name="bluetooth-bold" data-tags="bluetooth-bold" d="M796.8 294.4l-204.8 153.6 204.8 153.6c11.711 8.85 19.2 22.75 19.2 38.4s-7.489 29.55-19.079 38.313l-0.121 0.087-256 192c-7.922 5.993-17.94 9.6-28.8 9.6-26.51 0-48-21.49-48-48v0-288l-179.2 134.4c-7.922 5.993-17.94 9.6-28.8 9.6-26.51 0-48-21.49-48-48 0-15.65 7.489-29.55 19.079-38.313l0.121-0.087 204.8-153.6-204.8-153.6c-11.711-8.85-19.2-22.75-19.2-38.4 0-26.51 21.49-48 48-48 10.86 0 20.878 3.607 28.921 9.687l-0.121-0.087 179.2 134.4v-288c0-26.51 21.49-48 48-48 10.86 0 20.878 3.607 28.921 9.687l-0.121-0.087 256 192c11.711 8.85 19.2 22.75 19.2 38.4s-7.489 29.55-19.079 38.313l-0.121 0.087zM560 736l128-96-128-96zM560 160v192l128-96z" />
<glyph unicode="&#xe0dc;" glyph-name="bluetooth-connected-bold" data-tags="bluetooth-connected-bold" d="M796.8 294.4l-204.8 153.6 204.8 153.6c11.711 8.85 19.2 22.75 19.2 38.4s-7.489 29.55-19.079 38.313l-0.121 0.087-256 192c-7.922 5.993-17.94 9.6-28.8 9.6-26.51 0-48-21.49-48-48v0-288l-179.2 134.4c-7.922 5.993-17.94 9.6-28.8 9.6-26.51 0-48-21.49-48-48 0-15.65 7.489-29.55 19.079-38.313l0.121-0.087 204.8-153.6-204.8-153.6c-11.711-8.85-19.2-22.75-19.2-38.4 0-26.51 21.49-48 48-48 10.86 0 20.878 3.607 28.921 9.687l-0.121-0.087 179.2 134.4v-288c0-26.51 21.49-48 48-48 10.86 0 20.878 3.607 28.921 9.687l-0.121-0.087 256 192c11.711 8.85 19.2 22.75 19.2 38.4s-7.489 29.55-19.079 38.313l-0.121 0.087zM560 736l128-96-128-96zM560 160v192l128-96zM224 384c-35.346 0-64 28.654-64 64s28.654 64 64 64c35.346 0 64-28.654 64-64v0c0-35.346-28.654-64-64-64v0zM896 448c0-35.346-28.654-64-64-64s-64 28.654-64 64c0 35.346 28.654 64 64 64v0c35.346 0 64-28.654 64-64v0z" />
<glyph unicode="&#xe0de;" glyph-name="bluetooth-slash-bold" data-tags="bluetooth-slash-bold" d="M899.52 128.28l-640 704c-8.788 9.421-21.275 15.294-35.133 15.294-26.51 0-48-21.49-48-48 0-12.247 4.586-23.422 12.135-31.902l-0.042 0.048 271.52-298.72-232.8-174.6c-11.711-8.85-19.2-22.75-19.2-38.4 0-26.51 21.49-48 48-48 10.86 0 20.878 3.607 28.921 9.687l-0.121-0.087 179.2 134.4v-288c0-26.51 21.49-48 48-48 10.86 0 20.878 3.607 28.921 9.687l-0.121-0.087 191.64 143.76 96-105.64c8.788-9.421 21.275-15.294 35.133-15.294 26.51 0 48 21.49 48 48 0 12.247-4.586 23.422-12.135 31.902l0.042-0.048zM560 160v192l20-15.080 87.48-96.24zM464 721.040v110.96c0 26.51 21.49 48 48 48 10.86 0 20.878-3.607 28.921-9.687l-0.121 0.087 256-192c11.711-8.85 19.2-22.75 19.2-38.4s-7.489-29.55-19.079-38.313l-0.121-0.087-108.4-81.32c-7.922-5.993-17.94-9.6-28.8-9.6-26.51 0-48 21.49-48 48 0 15.65 7.489 29.55 19.079 38.313l0.121 0.087 57.2 42.92-128 96v-14.96c0-26.51-21.49-48-48-48s-48 21.49-48 48v0z" />
<glyph unicode="&#xe0e0;" glyph-name="bluetooth-x-bold" data-tags="bluetooth-x-bold" d="M732.8 294.4l-204.8 153.6 46.44 34.84c11.711 8.85 19.2 22.75 19.2 38.4 0 26.51-21.49 48-48 48-10.86 0-20.878-3.607-28.921-9.687l0.121 0.087-20.84-15.64v192l20.84-15.64c7.922-5.993 17.94-9.6 28.8-9.6 26.51 0 48 21.49 48 48 0 15.65-7.489 29.55-19.079 38.313l-0.121 0.087-97.64 73.24c-7.922 5.993-17.94 9.6-28.8 9.6-26.51 0-48-21.49-48-48v0-288l-179.2 134.4c-7.922 5.993-17.94 9.6-28.8 9.6-26.51 0-48-21.49-48-48 0-15.65 7.489-29.55 19.079-38.313l0.121-0.087 204.8-153.6-204.8-153.6c-11.711-8.85-19.2-22.75-19.2-38.4 0-26.51 21.49-48 48-48 10.86 0 20.878 3.607 28.921 9.687l-0.121-0.087 179.2 134.4v-288c0-26.51 21.49-48 48-48 10.86 0 20.878 3.607 28.921 9.687l-0.121-0.087 256 192c11.711 8.85 19.2 22.75 19.2 38.4s-7.489 29.55-19.079 38.313l-0.121 0.087zM496 160v192l128-96zM961.96 577.96c8.701-8.701 14.083-20.722 14.083-34 0-26.556-21.528-48.083-48.083-48.083-13.278 0-25.299 5.382-34 14.083v0l-61.96 62.040-62.040-62.080c-8.701-8.701-20.722-14.083-34-14.083-26.556 0-48.083 21.528-48.083 48.083 0 13.278 5.382 25.299 14.083 34l62.040 62.080-61.92 62.040c-8.701 8.701-14.083 20.722-14.083 34 0 26.556 21.528 48.083 48.083 48.083 13.278 0 25.299-5.382 34-14.083v0l61.92-62.040 62.040 62.080c8.701 8.701 20.722 14.083 34 14.083 26.556 0 48.083-21.528 48.083-48.083 0-13.278-5.382-25.299-14.083-34l-62.040-62.080z" />
<glyph unicode="&#xe0e2;" glyph-name="book-bold" data-tags="book-bold" d="M832 880h-544c-79.529 0-144-64.471-144-144v0-672c0-26.51 21.49-48 48-48v0h576c26.51 0 48 21.49 48 48s-21.49 48-48 48v0h-528v16c0 26.51 21.49 48 48 48v0h544c26.51 0 48 21.49 48 48v0 608c0 26.51-21.49 48-48 48v0zM784 272h-496c-0.080 0-0.174 0-0.269 0-17.114 0-33.522-3.020-48.721-8.555l0.99 0.315v472.24c0 26.51 21.49 48 48 48v0h496z" />
<glyph unicode="&#xe0e4;" glyph-name="book-bookmark-bold" data-tags="book-bookmark-bold" d="M832 880h-544c-79.529 0-144-64.471-144-144v0-672c0-26.51 21.49-48 48-48v0h576c26.51 0 48 21.49 48 48s-21.49 48-48 48v0h-528v16c0 26.51 21.49 48 48 48v0h544c26.51 0 48 21.49 48 48v0 608c0 26.51-21.49 48-48 48v0zM480 784h144v-236l-42.040 33.64c-8.139 6.56-18.606 10.53-30 10.53s-21.861-3.97-30.092-10.602l0.092 0.072-41.96-33.64zM784 272h-496c-0.080 0-0.174 0-0.269 0-17.114 0-33.522-3.020-48.721-8.555l0.99 0.315v472.24c0 26.51 21.49 48 48 48v0h96v-336c0-0.003 0-0.006 0-0.010 0-26.51 21.49-48 48-48 11.394 0 21.861 3.97 30.092 10.602l-0.092-0.072 89.96 72 90.040-72c8.139-6.56 18.606-10.53 30-10.53 26.51 0 48 21.49 48 48 0 0.004 0 0.007 0 0.011v-0.001 336h64z" />
<glyph unicode="&#xe0e6;" glyph-name="book-open-bold" data-tags="book-open-bold" d="M928 784h-288c-0.017 0-0.036 0-0.056 0-50.412 0-95.857-21.262-127.858-55.308l-0.085-0.092c-32.086 34.138-77.532 55.4-127.944 55.4-0.020 0-0.040 0-0.059 0h-287.997c-26.51 0-48-21.49-48-48v0-576c0-26.51 21.49-48 48-48v0h288c44.183 0 80-35.817 80-80v0c0-26.51 21.49-48 48-48s48 21.49 48 48v0c0 44.183 35.817 80 80 80v0h288c26.51 0 48 21.49 48 48v0 576c0 26.51-21.49 48-48 48v0zM384 208h-240v480h240c44.183 0 80-35.817 80-80v0-419.24c-23.201 12.126-50.676 19.24-79.812 19.24-0.066 0-0.132 0-0.198 0h0.010zM880 208h-240c-0.032 0-0.071 0-0.109 0-29.172 0-56.675-7.144-80.856-19.779l0.965 0.459v419.32c0 44.183 35.817 80 80 80v0h240z" />
<glyph unicode="&#xe0e8;" glyph-name="bookmark-bold" data-tags="bookmark-bold" d="M736 848h-448c-44.183 0-80-35.817-80-80v0-704c0-0.005 0-0.010 0-0.016 0-26.51 21.49-48 48-48 9.427 0 18.22 2.718 25.637 7.412l-0.197-0.116 230.52 144 230.6-144c7.22-4.578 16.013-7.296 25.44-7.296 26.51 0 48 21.49 48 48 0 0.006 0 0.011 0 0.017v-0.001 704c0 44.183-35.817 80-80 80v0zM720 752v-409.4l-182.6 114.12c-7.22 4.578-16.013 7.296-25.44 7.296s-18.22-2.718-25.637-7.412l0.197 0.116-182.52-114.12v409.4zM537.4 264.72c-7.22 4.578-16.013 7.296-25.44 7.296s-18.22-2.718-25.637-7.412l0.197 0.116-182.52-114.12v78.8l208 130 208-130v-78.8z" />
<glyph unicode="&#xe0ea;" glyph-name="bookmark-simple-bold" data-tags="bookmark-simple-bold" d="M736 848h-448c-44.183 0-80-35.817-80-80v0-704c0-0.005 0-0.010 0-0.016 0-26.51 21.49-48 48-48 9.427 0 18.22 2.718 25.637 7.412l-0.197-0.116 230.52 144 230.6-144c7.22-4.578 16.013-7.296 25.44-7.296 26.51 0 48 21.49 48 48 0 0.006 0 0.011 0 0.017v-0.001 704c0 44.183-35.817 80-80 80v0zM720 150.6l-182.6 114.12c-7.22 4.578-16.013 7.296-25.44 7.296s-18.22-2.718-25.637-7.412l0.197 0.116-182.52-114.12v601.4h416z" />
<glyph unicode="&#xe0ec;" glyph-name="bookmarks-bold" data-tags="bookmarks-bold" d="M768 880h-384c-44.183 0-80-35.817-80-80v0-80h-48c-44.183 0-80-35.817-80-80v0-576c0-0.001 0-0.003 0-0.005 0-26.51 21.49-48 48-48 11.072 0 21.269 3.749 29.389 10.046l-0.109-0.082 178.72 137.48 178.76-137.48c8.004-6.197 18.186-9.934 29.24-9.934 26.501 0 47.985 21.475 48 47.973v185.601l82.72-63.64c8.011-6.216 18.208-9.965 29.28-9.965 26.51 0 48 21.49 48 48 0 0.002 0 0.003 0 0.005v0 576c0 44.183-35.817 80-80 80v0zM592 161.48l-130.76 100.56c-8.008 6.207-18.197 9.949-29.26 9.949s-21.252-3.743-29.37-10.031l0.11 0.082-130.72-100.56v462.52h320zM752 321.48l-64 49.2v269.32c0 44.183-35.817 80-80 80v0h-208v64h352z" />
<glyph unicode="&#xe0ee;" glyph-name="briefcase-bold" data-tags="briefcase-bold" d="M400 560c0 26.51 21.49 48 48 48v0h128c26.51 0 48-21.49 48-48s-21.49-48-48-48v0h-128c-26.51 0-48 21.49-48 48v0zM944 688v-512c0-44.183-35.817-80-80-80v0h-704c-44.183 0-80 35.817-80 80v0 512c0 44.183 35.817 80 80 80v0h144v32c0 61.856 50.144 112 112 112v0h192c61.856 0 112-50.144 112-112v0-32h144c44.183 0 80-35.817 80-80v0zM400 768h224v32c0 8.837-7.163 16-16 16v0h-192c-8.837 0-16-7.163-16-16v0zM176 672v-140.92c97.334-52.332 212.985-83.080 335.817-83.080 0.065 0 0.129 0 0.194 0h-0.010c0.049 0 0.108 0 0.167 0 122.842 0 238.498 30.764 339.686 85.007l-3.853-1.887v140.88zM848 192v232.24c-98.699-45.628-214.195-72.24-335.906-72.24-0.033 0-0.066 0-0.099 0h0.006c-0.043 0-0.094 0-0.145 0-121.694 0-237.172 26.612-340.933 74.334l5.078-2.094v-232.24z" />
<glyph unicode="&#xe0f2;" glyph-name="broadcast-bold" data-tags="broadcast-bold" d="M512 624c-97.202 0-176-78.798-176-176s78.798-176 176-176c97.202 0 176 78.798 176 176v0c-0.114 97.156-78.844 175.886-175.989 176h-0.011zM512 368c-44.183 0-80 35.817-80 80s35.817 80 80 80c44.183 0 80-35.817 80-80v0c0-44.183-35.817-80-80-80v0zM821.56 317.2c-15.367-35.827-35.242-66.628-59.394-93.51l0.274 0.31c-8.828-9.84-21.584-16.002-35.78-16.002-26.511 0-48.002 21.491-48.002 48.002 0 12.315 4.638 23.547 12.262 32.045l-0.040-0.045c37.989 42.236 61.224 98.405 61.224 160s-23.235 117.763-61.417 160.219l0.193-0.219c-7.585 8.453-12.222 19.685-12.222 32 0 26.511 21.491 48.002 48.002 48.002 14.196 0 26.952-6.162 35.74-15.957l0.040-0.045c53.094-59.206 85.557-137.864 85.557-224.103 0-47.196-9.723-92.121-27.274-132.881l0.837 2.184zM333.12 288c7.585-8.453 12.222-19.685 12.222-32 0-26.511-21.491-48.002-48.002-48.002-14.196 0-26.952 6.162-35.74 15.957l-0.040 0.045c-53.143 59.148-85.642 137.779-85.642 224s32.499 164.851 85.916 224.309l-0.273-0.309c8.828 9.84 21.584 16.002 35.78 16.002 26.511 0 48.002-21.491 48.002-48.002 0-12.315-4.638-23.547-12.262-32.045l0.040 0.045c-37.989-42.236-61.224-98.405-61.224-160s23.235-117.763 61.417-160.219l-0.193 0.219zM1008 448c0-0.175 0-0.383 0-0.591 0-134.999-54.094-257.363-141.79-346.6l0.069 0.071c-8.806-9.599-21.408-15.594-35.41-15.594-26.51 0-48 21.49-48 48 0 13.644 5.692 25.958 14.832 34.697l0.018 0.017c70.817 72.041 114.535 170.915 114.535 280s-43.719 207.959-114.591 280.056l0.055-0.056c-8.484 8.651-13.721 20.514-13.721 33.6 0 26.51 21.491 48.001 48.001 48.001 13.424 0 25.561-5.511 34.272-14.393l0.008-0.008c87.626-89.166 141.72-211.53 141.72-346.529 0-0.236 0-0.472 0-0.707v0.036zM226.28 168c8.484-8.651 13.721-20.514 13.721-33.6 0-26.51-21.491-48.001-48.001-48.001-13.424 0-25.561 5.511-34.272 14.393l-0.008 0.008c-87.729 89.339-141.883 211.905-141.883 347.12s54.154 257.782 141.956 347.195l-0.073-0.075c8.542 7.954 20.037 12.835 32.672 12.835 26.51 0 48-21.49 48-48 0-12.257-4.594-23.44-12.154-31.923l0.042 0.048c-70.817-72.041-114.535-170.915-114.535-280s43.719-207.959 114.591-280.056l-0.055 0.056z" />
<glyph unicode="&#xe0f4;" glyph-name="browser-bold" data-tags="browser-bold" d="M864 816h-704c-44.183 0-80-35.817-80-80v0-576c0-44.183 35.817-80 80-80v0h704c44.183 0 80 35.817 80 80v0 576c0 44.183-35.817 80-80 80v0zM848 720v-96h-672v96zM176 176v352h672v-352z" />
<glyph unicode="&#xe0f6;" glyph-name="browsers-bold" data-tags="browsers-bold" d="M880 832h-576c-44.183 0-80-35.817-80-80v0-80h-80c-44.183 0-80-35.817-80-80v0-448c0-44.183 35.817-80 80-80v0h576c44.183 0 80 35.817 80 80v0 80h80c44.183 0 80 35.817 80 80v0 448c0 44.183-35.817 80-80 80v0zM704 576v-64h-544v64zM704 160h-544v256h544zM864 320h-64v272c0 44.183-35.817 80-80 80v0h-400v64h544z" />
<glyph unicode="&#xe0f8;" glyph-name="cards-bold" data-tags="cards-bold" d="M720 672h-576c-44.183 0-80-35.817-80-80v0-448c0-44.183 35.817-80 80-80v0h576c44.183 0 80 35.817 80 80v0 448c0 44.183-35.817 80-80 80v0zM704 160h-544v416h544zM960 752v-496c0-26.51-21.49-48-48-48s-48 21.49-48 48v0 480h-608c-26.51 0-48 21.49-48 48s21.49 48 48 48v0h624c44.183 0 80-35.817 80-80v0z" />
<glyph unicode="&#xe0fe;" glyph-name="building-apartment-bold" data-tags="building-apartment-bold" d="M960 144h-16v512c0 26.51-21.49 48-48 48v0h-144v96c0 26.51-21.49 48-48 48v0h-384c-26.51 0-48-21.49-48-48v0-240h-144c-26.51 0-48-21.49-48-48v0-368h-16c-26.51 0-48-21.49-48-48s21.49-48 48-48v0h896c26.51 0 48 21.49 48 48s-21.49 48-48 48v0zM176 464h144c26.51 0 48 21.49 48 48v0 240h288v-96c0-26.51 21.49-48 48-48v0h144v-464h-256v112c0 8.837-7.163 16-16 16v0h-128c-8.837 0-16-7.163-16-16v0-112h-256zM432 656c0 26.51 21.49 48 48 48v0h64c26.51 0 48-21.49 48-48s-21.49-48-48-48v0h-64c-26.51 0-48 21.49-48 48v0zM432 512c0 26.51 21.49 48 48 48v0h64c26.51 0 48-21.49 48-48s-21.49-48-48-48v0h-64c-26.51 0-48 21.49-48 48v0zM640 512c0 26.51 21.49 48 48 48v0h64c26.51 0 48-21.49 48-48s-21.49-48-48-48v0h-64c-26.51 0-48 21.49-48 48v0zM384 368c0-26.51-21.49-48-48-48v0h-64c-26.51 0-48 21.49-48 48s21.49 48 48 48v0h64c26.51 0 48-21.49 48-48v0zM432 368c0 26.51 21.49 48 48 48v0h64c26.51 0 48-21.49 48-48s-21.49-48-48-48v0h-64c-26.51 0-48 21.49-48 48v0zM640 368c0 26.51 21.49 48 48 48v0h64c26.51 0 48-21.49 48-48s-21.49-48-48-48v0h-64c-26.51 0-48 21.49-48 48v0z" />
<glyph unicode="&#xe0ff;" glyph-name="building-office-bold" data-tags="building-office-bold" d="M976 144h-48v418.8c18.722 6.832 31.846 24.483 31.846 45.2 0 26.456-21.403 47.912-47.838 48h-160.008v98.8c18.722 6.832 31.846 24.483 31.846 45.2 0 26.456-21.403 47.912-47.838 48h-576.008c-26.444-0.087-47.846-21.544-47.846-48 0-20.717 13.125-38.369 31.513-45.094l0.333-0.107v-610.8h-48c-26.51 0-48-21.49-48-48s21.49-48 48-48v0h880c26.51 0 48 21.49 48 48s-21.49 48-48 48v0zM832 560v-416h-80v416zM240 752h416v-608h-64v176c0 26.51-21.49 48-48 48v0h-192c-26.51 0-48-21.49-48-48v0-176h-64zM496 144h-96v128h96zM288 640c0 26.51 21.49 48 48 48v0h32c26.51 0 48-21.49 48-48s-21.49-48-48-48v0h-32c-26.51 0-48 21.49-48 48v0zM480 640c0 26.51 21.49 48 48 48v0h32c26.51 0 48-21.49 48-48s-21.49-48-48-48v0h-32c-26.51 0-48 21.49-48 48v0zM288 480c0 26.51 21.49 48 48 48v0h32c26.51 0 48-21.49 48-48s-21.49-48-48-48v0h-32c-26.51 0-48 21.49-48 48v0zM480 480c0 26.51 21.49 48 48 48v0h32c26.51 0 48-21.49 48-48s-21.49-48-48-48v0h-32c-26.51 0-48 21.49-48 48v0z" />
<glyph unicode="&#xe100;" glyph-name="building-bold" data-tags="building-bold" d="M928 80h-80v736h16c26.51 0 48 21.49 48 48s-21.49 48-48 48v0h-704c-26.51 0-48-21.49-48-48s21.49-48 48-48v0h16v-736h-80c-26.51 0-48-21.49-48-48s21.49-48 48-48v0h832c26.51 0 48 21.49 48 48s-21.49 48-48 48v0zM272 816h480v-736h-96v144c0 26.51-21.49 48-48 48v0h-192c-26.51 0-48-21.49-48-48v0-144h-96zM560 80h-96v96h96zM336 704c0 26.51 21.49 48 48 48v0h48c26.51 0 48-21.49 48-48s-21.49-48-48-48v0h-48c-26.51 0-48 21.49-48 48v0zM544 704c0 26.51 21.49 48 48 48v0h48c26.51 0 48-21.49 48-48s-21.49-48-48-48v0h-48c-26.51 0-48 21.49-48 48v0zM336 544c0 26.51 21.49 48 48 48v0h48c26.51 0 48-21.49 48-48s-21.49-48-48-48v0h-48c-26.51 0-48 21.49-48 48v0zM544 544c0 26.51 21.49 48 48 48v0h48c26.51 0 48-21.49 48-48s-21.49-48-48-48v0h-48c-26.51 0-48 21.49-48 48v0zM336 384c0 26.51 21.49 48 48 48v0h48c26.51 0 48-21.49 48-48s-21.49-48-48-48v0h-48c-26.51 0-48 21.49-48 48v0zM544 384c0 26.51 21.49 48 48 48v0h48c26.51 0 48-21.49 48-48s-21.49-48-48-48v0h-48c-26.51 0-48 21.49-48 48v0z" />
<glyph unicode="&#xe102;" glyph-name="buildings-bold" data-tags="buildings-bold" d="M960 144h-48v432c0 44.183-35.817 80-80 80v0h-144v176c-0.017 44.17-35.827 79.971-80 79.971-12.269 0-23.894-2.762-34.285-7.698l0.485 0.207-416-194.16c-27.478-13.094-46.142-40.62-46.2-72.512v-493.808h-48c-26.51 0-48-21.49-48-48s21.49-48 48-48v0h896c26.51 0 48 21.49 48 48s-21.49 48-48 48v0zM816 560v-416h-128v416zM208 627.64l384 179.16v-662.8h-384zM528 512v-48c0-26.51-21.49-48-48-48s-48 21.49-48 48v0 48c0 26.51 21.49 48 48 48s48-21.49 48-48v0zM368 512v-48c0-26.51-21.49-48-48-48s-48 21.49-48 48v0 48c0 26.51 21.49 48 48 48s48-21.49 48-48v0zM368 304v-48c0-26.51-21.49-48-48-48s-48 21.49-48 48v0 48c0 26.51 21.49 48 48 48s48-21.49 48-48v0zM528 304v-48c0-26.51-21.49-48-48-48s-48 21.49-48 48v0 48c0 26.51 21.49 48 48 48s48-21.49 48-48v0z" />
<glyph unicode="&#xe106;" glyph-name="bus-bold" data-tags="bus-bold" d="M736 848h-448c-79.529 0-144-64.471-144-144v0-576c0-44.183 35.817-80 80-80v0h112c44.183 0 80 35.817 80 80v0 64h192v-64c0-44.183 35.817-80 80-80v0h112c44.183 0 80 35.817 80 80v0 576c0 79.529-64.471 144-144 144v0zM240 288v224h544v-224zM288 752h448c26.51 0 48-21.49 48-48v0-96h-544v96c0 26.51 21.49 48 48 48v0zM320 144h-80v48h80zM704 144v48h80v-48zM432 400c0-35.346-28.654-64-64-64s-64 28.654-64 64c0 35.346 28.654 64 64 64v0c35.346 0 64-28.654 64-64v0zM720 400c0-35.346-28.654-64-64-64s-64 28.654-64 64c0 35.346 28.654 64 64 64v0c35.346 0 64-28.654 64-64v0zM1024 640v-96c0-26.51-21.49-48-48-48s-48 21.49-48 48v0 96c0 26.51 21.49 48 48 48s48-21.49 48-48v0zM96 640v-96c0-26.51-21.49-48-48-48s-48 21.49-48 48v0 96c0 26.51 21.49 48 48 48s48-21.49 48-48v0z" />
<glyph unicode="&#xe108;" glyph-name="calendar-bold" data-tags="calendar-bold" d="M832 848h-80v16c0 26.51-21.49 48-48 48s-48-21.49-48-48v0-16h-288v16c0 26.51-21.49 48-48 48s-48-21.49-48-48v0-16h-80c-44.183 0-80-35.817-80-80v0-640c0-44.183 35.817-80 80-80v0h640c44.183 0 80 35.817 80 80v0 640c0 44.183-35.817 80-80 80v0zM272 752c0-26.51 21.49-48 48-48s48 21.49 48 48v0h288c0-26.51 21.49-48 48-48s48 21.49 48 48v0h64v-96h-608v96zM208 144v416h608v-416zM448 464v-224c0-26.51-21.49-48-48-48s-48 21.49-48 48v0 146.72c-4.469-1.517-9.616-2.393-14.968-2.393-26.51 0-48 21.49-48 48 0 18.271 10.208 34.158 25.233 42.268l0.255 0.126 64 32c6.258 3.2 13.65 5.075 21.48 5.075 26.437 0 47.883-21.373 48-47.783v-0.011zM693.96 328.48l-38.36-40.48h16.4c26.51 0 48-21.49 48-48s-21.49-48-48-48v0h-128c-26.502 0.010-47.983 21.496-47.983 48 0 12.793 5.005 24.417 13.163 33.021l-0.020-0.021 112.64 119c1.366 2.291 2.181 5.048 2.2 7.995v0.005c0 0.012 0 0.027 0 0.041 0 8.837-7.163 16-16 16-5.908 0-11.068-3.202-13.839-7.965l-0.041-0.076c-8.548-14.022-23.759-23.242-41.122-23.242-26.51 0-48 21.49-48 48 0 8.53 2.225 16.541 6.127 23.483l-0.125-0.241c19.724 33.719 55.759 56.009 97 56.009 61.856 0 112-50.144 112-112 0-0.003 0-0.006 0-0.009v0c0-0.099 0.001-0.217 0.001-0.335 0-25.333-8.48-48.686-22.757-67.373l0.197 0.269c-1.134-1.505-2.274-2.835-3.491-4.091l0.011 0.011z" />
</font>
</defs>
</svg>
