<?xml version="1.0" standalone="no"?>
<!DOCTYPE svg PUBLIC "-//W3C//DTD SVG 1.1//EN" "http://www.w3.org/Graphics/SVG/1.1/DTD/svg11.dtd" >
<svg xmlns="http://www.w3.org/2000/svg">
<metadata>
<json>
<![CDATA[
{
	"fontFamily": "Phosphor-Fill",
	"majorVersion": 2,
	"minorVersion": 1,
	"fontURL": "https://phosphoricons.com",
	"description": "A flexible icon family for everyone\nFont generated by IcoMoon.",
	"copyright": "Phosphor Icons",
	"designer": "Tobias Fried & Helena Zhang",
	"designerURL": "https://phosphoricons.com",
	"license": "MIT",
	"licenseURL": "https://raw.githubusercontent.com/phosphor-icons/homepage/master/LICENSE",
	"version": "Version 2.1",
	"fontId": "Phosphor-Fill",
	"psName": "Phosphor-Fill",
	"subFamily": "Regular",
	"fullName": "Phosphor-Fill"
}
]]>
</json>
</metadata>
<defs>
<font id="Phosphor-Fill" horiz-adv-x="1024">
<font-face units-per-em="1024" ascent="960" descent="-64" />
<missing-glyph horiz-adv-x="1024" />
<glyph unicode="&#x20;" horiz-adv-x="512" d="" />
<glyph unicode="&#xe000;" glyph-name="pulse-fill, activity-fill" data-tags="pulse-fill" d="M864 800h-704c-35.346 0-64-28.654-64-64v0-576c0-35.346 28.654-64 64-64v0h704c35.346 0 64 28.654 64 64v0 576c0 35.346-28.654 64-64 64v0zM832 416h-77.44l-118.56-208c-5.636-9.633-15.931-16-27.713-16-0.031 0-0.061 0-0.092 0h-1.835c-12.374 0.743-22.79 8.412-27.48 19.154l-0.080 0.206-166.8 388.96-96-168.32c-5.636-9.633-15.931-16.001-27.714-16.001-0.101 0-0.201 0-0.302 0.001h-95.985c-17.673 0-32 14.327-32 32s14.327 32 32 32v0h77.44l118.76 208c5.619 9.702 15.952 16.123 27.784 16.123 13.121 0 24.398-7.897 29.336-19.197l0.080-0.206 166.6-389.040 96 168.2c5.636 9.633 15.931 16 27.713 16 0.031 0 0.061 0 0.092 0h95.995c17.673 0 32-14.327 32-32s-14.327-32-32-32v0z" />
<glyph unicode="&#xe002;" glyph-name="airplane-fill" data-tags="airplane-fill" d="M960 416v-128c0-17.673-14.327-32-32-32v0c-0.021 0-0.046 0-0.070 0-2.199 0-4.343 0.233-6.409 0.676l0.2-0.036-297.72 59.36v-94.92l70.64-70.6c5.752-5.758 9.322-13.699 9.36-22.473v-96.007c0-0.016 0-0.036 0-0.055 0-17.673-14.327-32-32-32-4.325 0-8.449 0.858-12.213 2.413l0.213-0.078-148 59.24-148-59.24c-3.551-1.477-7.675-2.335-12-2.335-17.673 0-32 14.327-32 32 0 0.019 0 0.039 0 0.058v-0.003 96c0 0.007 0 0.016 0 0.025 0 8.83 3.577 16.825 9.36 22.615v0l70.64 70.6v94.76l-297.72-59.36c-1.867-0.407-4.011-0.64-6.21-0.64-0.025 0-0.050 0-0.074 0h0.004c-17.673 0-32 14.327-32 32v0 128c0 0.007 0 0.015 0 0.023 0 12.453 7.113 23.245 17.498 28.533l0.182 0.084 318.32 159.12v180.24c0 61.856 50.144 112 112 112s112-50.144 112-112v0-180.24l318.32-159.12c10.567-5.373 17.68-16.164 17.68-28.617 0-0.008 0-0.016 0-0.024v0.001z" />
<glyph unicode="&#xe004;" glyph-name="airplay-fill" data-tags="airplay-fill" d="M696.6 116.48c4.611-5.506 7.412-12.666 7.412-20.48 0-17.673-14.327-32-32-32-0.004 0-0.008 0-0.013 0h-319.999c-0.004 0-0.008 0-0.012 0-17.673 0-32 14.327-32 32 0 7.814 2.801 14.974 7.453 20.53l-0.041-0.050 160 192c5.911 7.056 14.725 11.51 24.58 11.51s18.669-4.455 24.539-11.461l0.041-0.050zM832 800h-640c-53.019 0-96-42.981-96-96v0-448c0-53.019 42.981-96 96-96v0h80.88c4.924 0.004 9.328 2.233 12.26 5.735l0.020 0.025 153.12 183.68c17.733 21.198 44.196 34.585 73.785 34.585 3.598 0 7.151-0.198 10.646-0.584l-0.431 0.039c26.363-3.204 49.157-16.382 64.86-35.584l0.14-0.176 151.64-181.96c2.952-3.527 7.356-5.756 12.279-5.76h80.801c53.019 0 96 42.981 96 96v0 448c0 53.019-42.981 96-96 96v0z" />
<glyph unicode="&#xe006;" glyph-name="alarm-fill" data-tags="alarm-fill" d="M246.64 809.36l-128-128c-5.794-5.794-13.799-9.378-22.64-9.378-17.683 0-32.018 14.335-32.018 32.018 0 8.841 3.584 16.846 9.378 22.64l128 128c5.794 5.794 13.799 9.378 22.64 9.378 17.683 0 32.018-14.335 32.018-32.018 0-8.841-3.584-16.846-9.378-22.64v0zM950.64 726.64l-128 128c-5.794 5.794-13.799 9.378-22.64 9.378-17.683 0-32.018-14.335-32.018-32.018 0-8.841 3.584-16.846 9.378-22.64v0l128-128c5.794-5.794 13.799-9.378 22.64-9.378 17.683 0 32.018 14.335 32.018 32.018 0 8.841-3.584 16.846-9.378 22.64v0zM896 416c0-212.077-171.923-384-384-384s-384 171.923-384 384c0 212.077 171.923 384 384 384v0c211.976-0.25 383.75-172.023 384-383.976v-0.024zM768 416c0 17.673-14.327 32-32 32v0h-192v192c0 17.673-14.327 32-32 32s-32-14.327-32-32v0-224c0-17.673 14.327-32 32-32v0h224c17.673 0 32 14.327 32 32v0z" />
<glyph unicode="&#xe008;" glyph-name="android-logo-fill" data-tags="android-logo-fill" d="M828.24 637.32c-2.96 2.96-5.96 5.84-8.96 8.68l99.36 99.36c5.794 5.794 9.378 13.799 9.378 22.64 0 17.683-14.335 32.018-32.018 32.018-8.841 0-16.846-3.584-22.64-9.378v0l-104-104c-71.428 50.819-160.442 81.245-256.562 81.245-96.584 0-185.992-30.72-258.988-82.922l1.35 0.917-104.52 104.76c-5.794 5.794-13.799 9.378-22.64 9.378-17.683 0-32.018-14.335-32.018-32.018 0-8.841 3.584-16.846 9.378-22.64l100.24-100.24c-87.291-82.83-141.6-199.683-141.6-329.221 0-0.148 0-0.295 0-0.442v0.023-91.48c0-35.346 28.654-64 64-64v0h768c35.346 0 64 28.654 64 64v0 96c0.001 0.368 0.002 0.804 0.002 1.24 0 123.59-50.383 235.413-131.73 316.049l-0.032 0.031zM368 320c-26.51 0-48 21.49-48 48s21.49 48 48 48c26.51 0 48-21.49 48-48v0c0-26.51-21.49-48-48-48v0zM656 320c-26.51 0-48 21.49-48 48s21.49 48 48 48c26.51 0 48-21.49 48-48v0c0-26.51-21.49-48-48-48v0z" />
<glyph unicode="&#xe00a;" glyph-name="aperture-fill" data-tags="aperture-fill" d="M928 448c0 0.002 0 0.005 0 0.007 0 229.75-186.25 416-416 416-114.877 0-218.878-46.564-294.16-121.847v0c-75.283-75.282-121.847-179.283-121.847-294.16 0-229.75 186.25-416 416-416 0.003 0 0.005 0 0.008 0h0.359c229.596 0.205 415.64 186.376 415.64 416v0zM196.72 604.32l204.84-37.4-214.96-253.040c-16.682 39.62-26.375 85.676-26.375 133.996 0 56.979 13.479 110.81 37.421 158.479l-0.926-2.035zM837.4 582.16c16.683-39.626 26.377-85.688 26.377-134.015 0-56.987-13.479-110.825-37.423-158.501l0.926 2.036-204.84 37.4zM805.080 642.96l-134.88-158.96-111.68 312.88c79.744-10.703 149.541-46.9 202.387-99.987l0.013-0.013c16.066-16.093 30.6-33.726 43.357-52.656l0.803-1.264zM489.72 799.24l70.040-196-326.56 59.48c9.683 12.559 19.467 23.712 29.901 34.221l-0.021-0.021c58.455 58.729 137.635 96.785 225.641 102.27l0.999 0.050zM218.92 253.040l134.88 158.96 111.68-312.72c-103.35 14.145-191.066 71.37-245.762 152.662l-0.798 1.258zM534.28 96.8l-70.040 196 326.4-59.56c-60.356-78.219-151.806-129.905-255.511-136.429l-1.009-0.051z" />
<glyph unicode="&#xe00c;" glyph-name="archive-fill" data-tags="archive-fill" d="M896 768h-768c-35.346 0-64-28.654-64-64v0-96c0-35.346 28.654-64 64-64v0-352c0-35.346 28.654-64 64-64v0h640c35.346 0 64 28.654 64 64v0 352c35.346 0 64 28.654 64 64v0 96c0 35.346-28.654 64-64 64v0zM608 384h-192c-17.673 0-32 14.327-32 32s14.327 32 32 32v0h192c17.673 0 32-14.327 32-32s-14.327-32-32-32v0zM896 608h-768v96h768v-96z" />
<glyph unicode="&#xe00e;" glyph-name="box-arrow-down-fill, archive-box-fill" data-tags="box-arrow-down-fill" d="M892.64 686.32l-64 128c-5.373 10.567-16.164 17.68-28.617 17.68-0.008 0-0.016 0-0.024 0h-575.999c-0.007 0-0.015 0-0.023 0-12.453 0-23.245-7.113-28.533-17.498l-0.084-0.182-64-128c-2.115-4.175-3.355-9.102-3.36-14.318v-544.002c0-35.346 28.654-64 64-64v0h640c35.346 0 64 28.654 64 64v0 544c-0.005 5.218-1.245 10.145-3.445 14.505l0.085-0.185zM662.64 329.36l-128-128c-5.792-5.798-13.797-9.385-22.64-9.385s-16.848 3.587-22.64 9.385v0l-128 128c-5.794 5.794-9.378 13.799-9.378 22.64 0 17.683 14.335 32.018 32.018 32.018 8.841 0 16.846-3.584 22.64-9.378l73.36-73.4v242.76c0 17.673 14.327 32 32 32s32-14.327 32-32v0-242.76l73.36 73.4c5.794 5.794 13.799 9.378 22.64 9.378 17.683 0 32.018-14.335 32.018-32.018 0-8.841-3.584-16.846-9.378-22.64v0zM211.76 704l32 64h536.48l32-64z" />
<glyph unicode="&#xe010;" glyph-name="tray-arrow-down-fill, archive-tray-fill" data-tags="tray-arrow-down-fill" d="M832 832h-640c-35.346 0-64-28.654-64-64v0-640c0-35.346 28.654-64 64-64v0h640c35.346 0 64 28.654 64 64v0 640c0 35.346-28.654 64-64 64v0zM361.36 502.64c5.792 5.798 13.797 9.385 22.64 9.385s16.848-3.587 22.64-9.385l73.36-73.4v242.76c0 17.673 14.327 32 32 32s32-14.327 32-32v0-242.76l73.36 73.4c5.794 5.794 13.799 9.378 22.64 9.378 17.683 0 32.018-14.335 32.018-32.018 0-8.841-3.584-16.846-9.378-22.64l-128-128c-5.792-5.798-13.797-9.385-22.64-9.385s-16.848 3.587-22.64 9.385v0l-128 128c-5.798 5.792-9.385 13.797-9.385 22.64s3.587 16.848 9.385 22.64v0zM832 128h-640v160h114.76l77.24-77.28c11.512-11.564 27.444-18.72 45.047-18.72 0.068 0 0.135 0 0.203 0h165.509c0.060 0 0.131 0 0.203 0 17.607 0 33.539 7.173 45.033 18.756l77.244 77.244h114.76v-160z" />
<glyph unicode="&#xe012;" glyph-name="armchair-fill" data-tags="armchair-fill" d="M960 432c-0.006-56.206-41.413-102.74-95.387-110.765l-0.613-0.075v-161.16c0-35.346-28.654-64-64-64v0h-576c-35.346 0-64 28.654-64 64v0 161.16c-54.59 8.101-96 54.64-96 110.851 0 61.856 50.144 112 112 112s112-50.144 112-112c0-0.004 0-0.008 0-0.012v0.001-144c0-17.673 14.327-32 32-32s32 14.327 32 32v0 96h320v-96c0-17.673 14.327-32 32-32s32 14.327 32 32v0 144c0 61.856 50.144 112 112 112s112-50.144 112-112v0zM176 608c91.511-0.134 166.664-69.993 175.185-159.289l0.055-0.711h321.52c8.576 90.007 83.729 159.866 175.226 160h0.014c8.837 0 16 7.163 16 16v0 48c0 88.366-71.634 160-160 160v0h-384c-88.366 0-160-71.634-160-160v0-48c0-8.837 7.163-16 16-16v0z" />
<glyph unicode="&#xe014;" glyph-name="arrow-arc-left-fill" data-tags="arrow-arc-left-fill" d="M928 224c0-17.673-14.327-32-32-32s-32 14.327-32 32v0c-0.082 194.343-157.646 351.857-352 351.857-93.874 0-179.166-36.747-242.274-96.642l0.154 0.145 104.76-104.72c5.798-5.792 9.385-13.797 9.385-22.64 0-17.673-14.327-32-32-32-0.009 0-0.018 0-0.027 0h-255.999c-17.673 0-32 14.327-32 32v0 256c0 0.007 0 0.016 0 0.025 0 17.673 14.327 32 32 32 8.843 0 16.848-3.587 22.64-9.385v0l105.92-105.92c74.554 71.353 175.867 115.277 287.44 115.277 229.749 0 415.998-186.248 416-415.997v0z" />
<glyph unicode="&#xe016;" glyph-name="arrow-arc-right-fill" data-tags="arrow-arc-right-fill" d="M960 608v-256c0-17.673-14.327-32-32-32v0h-256c-0.007 0-0.016 0-0.025 0-17.673 0-32 14.327-32 32 0 8.843 3.587 16.848 9.385 22.64l104.76 104.72c-62.954 59.749-148.246 96.497-242.12 96.497-194.354 0-351.918-157.514-352-351.849v-0.008c0-17.673-14.327-32-32-32s-32 14.327-32 32v0c0.002 229.749 186.251 415.997 416 415.997 111.573 0 212.886-43.924 287.593-115.422l-0.153 0.145 105.92 105.92c5.792 5.798 13.797 9.385 22.64 9.385 17.673 0 32-14.327 32-32 0-0.009 0-0.018 0-0.027v0.001z" />
<glyph unicode="&#xe018;" glyph-name="arrow-bend-down-left-fill" data-tags="arrow-bend-down-left-fill" d="M928 736c-0.25-229.65-186.35-415.75-415.976-416h-160.024v-160c0-0.007 0-0.016 0-0.025 0-17.673-14.327-32-32-32-8.843 0-16.848 3.587-22.64 9.385v0l-192 192c-5.798 5.792-9.385 13.797-9.385 22.64s3.587 16.848 9.385 22.64v0l192 192c5.792 5.798 13.797 9.385 22.64 9.385 17.673 0 32-14.327 32-32 0-0.009 0-0.018 0-0.027v0.001-160h160c194.313 0.228 351.772 157.687 352 351.978v0.022c0 17.673 14.327 32 32 32s32-14.327 32-32v0z" />
<glyph unicode="&#xe01a;" glyph-name="arrow-bend-down-right-fill" data-tags="arrow-bend-down-right-fill" d="M918.64 329.36l-192-192c-5.792-5.798-13.797-9.385-22.64-9.385-17.673 0-32 14.327-32 32 0 0.009 0 0.018 0 0.027v-0.001 160h-160c-229.65 0.25-415.75 186.35-416 415.976v0.024c0 17.673 14.327 32 32 32s32-14.327 32-32v0c0.228-194.313 157.687-351.772 351.978-352h160.022v160c0 0.007 0 0.016 0 0.025 0 17.673 14.327 32 32 32 8.843 0 16.848-3.587 22.64-9.385v0l192-192c5.798-5.792 9.385-13.797 9.385-22.64s-3.587-16.848-9.385-22.64v0z" />
<glyph unicode="&#xe01c;" glyph-name="arrow-bend-left-down-fill" data-tags="arrow-bend-left-down-fill" d="M832 832c0-17.673-14.327-32-32-32v0c-194.313-0.228-351.772-157.687-352-351.978v-160.022h160c0.007 0 0.016 0 0.025 0 17.673 0 32-14.327 32-32 0-8.843-3.587-16.848-9.385-22.64v0l-192-192c-5.792-5.798-13.797-9.385-22.64-9.385s-16.848 3.587-22.64 9.385v0l-192 192c-5.798 5.792-9.385 13.797-9.385 22.64 0 17.673 14.327 32 32 32 0.009 0 0.018 0 0.027 0h159.999v160c0.25 229.65 186.35 415.75 415.976 416h0.024c17.673 0 32-14.327 32-32v0z" />
<glyph unicode="&#xe01e;" glyph-name="arrow-bend-left-up-fill" data-tags="arrow-bend-left-up-fill" d="M832 64c0-17.673-14.327-32-32-32v0c-229.65 0.25-415.75 186.35-416 415.976v160.024h-160c-0.007 0-0.016 0-0.025 0-17.673 0-32 14.327-32 32 0 8.843 3.587 16.848 9.385 22.64v0l192 192c5.792 5.798 13.797 9.385 22.64 9.385s16.848-3.587 22.64-9.385v0l192-192c5.798-5.792 9.385-13.797 9.385-22.64 0-17.673-14.327-32-32-32-0.009 0-0.018 0-0.027 0h-159.999v-160c0.228-194.313 157.687-351.772 351.978-352h0.022c17.673 0 32-14.327 32-32v0z" />
<glyph unicode="&#xe020;" glyph-name="arrow-bend-right-down-fill" data-tags="arrow-bend-right-down-fill" d="M822.64 233.36l-192-192c-5.792-5.798-13.797-9.385-22.64-9.385s-16.848 3.587-22.64 9.385v0l-192 192c-5.798 5.792-9.385 13.797-9.385 22.64 0 17.673 14.327 32 32 32 0.009 0 0.018 0 0.027 0h159.999v160c-0.228 194.313-157.687 351.772-351.978 352h-0.022c-17.673 0-32 14.327-32 32s14.327 32 32 32v0c229.65-0.25 415.75-186.35 416-415.976v-160.024h160c0.007 0 0.016 0 0.025 0 17.673 0 32-14.327 32-32 0-8.843-3.587-16.848-9.385-22.64v0z" />
<glyph unicode="&#xe022;" glyph-name="arrow-bend-right-up-fill" data-tags="arrow-bend-right-up-fill" d="M829.56 627.76c-4.934-11.696-16.306-19.757-29.56-19.76h-160v-160c-0.25-229.65-186.35-415.75-415.976-416h-0.024c-17.673 0-32 14.327-32 32s14.327 32 32 32v0c194.313 0.228 351.772 157.687 352 351.978v160.022h-160c-0.007 0-0.016 0-0.025 0-17.673 0-32 14.327-32 32 0 8.843 3.587 16.848 9.385 22.64v0l192 192c5.792 5.798 13.797 9.385 22.64 9.385s16.848-3.587 22.64-9.385v0l192-192c5.785-5.79 9.363-13.786 9.363-22.618 0-4.425-0.898-8.639-2.522-12.472l0.079 0.21z" />
<glyph unicode="&#xe024;" glyph-name="arrow-bend-up-left-fill" data-tags="arrow-bend-up-left-fill" d="M928 160c0-17.673-14.327-32-32-32s-32 14.327-32 32v0c-0.228 194.313-157.687 351.772-351.978 352h-160.022v-160c0-0.007 0-0.016 0-0.025 0-17.673-14.327-32-32-32-8.843 0-16.848 3.587-22.64 9.385v0l-192 192c-5.798 5.792-9.385 13.797-9.385 22.64s3.587 16.848 9.385 22.64v0l192 192c5.792 5.798 13.797 9.385 22.64 9.385 17.673 0 32-14.327 32-32 0-0.009 0-0.018 0-0.027v0.001-160h160c229.65-0.25 415.75-186.35 416-415.976v-0.024z" />
<glyph unicode="&#xe026;" glyph-name="arrow-bend-up-right-fill" data-tags="arrow-bend-up-right-fill" d="M918.64 521.36l-192-192c-5.792-5.798-13.797-9.385-22.64-9.385-17.673 0-32 14.327-32 32 0 0.009 0 0.018 0 0.027v-0.001 160h-160c-194.313-0.228-351.772-157.687-352-351.978v-0.022c0-17.673-14.327-32-32-32s-32 14.327-32 32v0c0.25 229.65 186.35 415.75 415.976 416h160.024v160c0 0.007 0 0.016 0 0.025 0 17.673 14.327 32 32 32 8.843 0 16.848-3.587 22.64-9.385v0l192-192c5.798-5.792 9.385-13.797 9.385-22.64s-3.587-16.848-9.385-22.64v0z" />
<glyph unicode="&#xe028;" glyph-name="arrow-circle-down-fill" data-tags="arrow-circle-down-fill" d="M512 864c-229.75 0-416-186.25-416-416s186.25-416 416-416c229.75 0 416 186.25 416 416v0c-0.25 229.65-186.35 415.75-415.976 416h-0.024zM662.64 393.36l-128-128c-5.792-5.798-13.797-9.385-22.64-9.385s-16.848 3.587-22.64 9.385v0l-128 128c-5.794 5.794-9.378 13.799-9.378 22.64 0 17.683 14.335 32.018 32.018 32.018 8.841 0 16.846-3.584 22.64-9.378l73.36-73.4v242.76c0 17.673 14.327 32 32 32s32-14.327 32-32v0-242.76l73.36 73.4c5.794 5.794 13.799 9.378 22.64 9.378 17.683 0 32.018-14.335 32.018-32.018 0-8.841-3.584-16.846-9.378-22.64v0z" />
<glyph unicode="&#xe02a;" glyph-name="arrow-circle-down-left-fill" data-tags="arrow-circle-down-left-fill" d="M512 864c-229.75 0-416-186.25-416-416s186.25-416 416-416c229.75 0 416 186.25 416 416v0c-0.25 229.65-186.35 415.75-415.976 416h-0.024zM662.64 553.36l-201.4-201.36h114.76c17.673 0 32-14.327 32-32s-14.327-32-32-32v0h-192c-17.673 0-32 14.327-32 32v0 192c0 17.673 14.327 32 32 32s32-14.327 32-32v0-114.76l201.36 201.4c5.794 5.794 13.799 9.378 22.64 9.378 17.683 0 32.018-14.335 32.018-32.018 0-8.841-3.584-16.846-9.378-22.64v0z" />
<glyph unicode="&#xe02c;" glyph-name="arrow-circle-down-right-fill" data-tags="arrow-circle-down-right-fill" d="M512 864c-229.75 0-416-186.25-416-416s186.25-416 416-416c229.75 0 416 186.25 416 416v0c-0.25 229.65-186.35 415.75-415.976 416h-0.024zM672 320c0-17.673-14.327-32-32-32v0h-192c-17.673 0-32 14.327-32 32s14.327 32 32 32v0h114.76l-201.4 201.36c-5.794 5.794-9.378 13.799-9.378 22.64 0 17.683 14.335 32.018 32.018 32.018 8.841 0 16.846-3.584 22.64-9.378l201.36-201.4v114.76c0 17.673 14.327 32 32 32s32-14.327 32-32v0z" />
<glyph unicode="&#xe02e;" glyph-name="arrow-circle-right-fill" data-tags="arrow-circle-right-fill" d="M512 864c-229.75 0-416-186.25-416-416s186.25-416 416-416c229.75 0 416 186.25 416 416v0c-0.25 229.65-186.35 415.75-415.976 416h-0.024zM694.64 425.36l-128-128c-5.794-5.794-13.799-9.378-22.64-9.378-17.683 0-32.018 14.335-32.018 32.018 0 8.841 3.584 16.846 9.378 22.64l73.4 73.36h-242.76c-17.673 0-32 14.327-32 32s14.327 32 32 32v0h242.76l-73.4 73.36c-5.794 5.794-9.378 13.799-9.378 22.64 0 17.683 14.335 32.018 32.018 32.018 8.841 0 16.846-3.584 22.64-9.378l128-128c5.798-5.792 9.385-13.797 9.385-22.64s-3.587-16.848-9.385-22.64v0z" />
<glyph unicode="&#xe030;" glyph-name="arrow-circle-up-fill" data-tags="arrow-circle-up-fill" d="M512 864c-229.75 0-416-186.25-416-416s186.25-416 416-416c229.75 0 416 186.25 416 416v0c-0.25 229.65-186.35 415.75-415.976 416h-0.024zM662.64 457.36c-5.792-5.798-13.797-9.385-22.64-9.385s-16.848 3.587-22.64 9.385l-73.36 73.4v-242.76c0-17.673-14.327-32-32-32s-32 14.327-32 32v0 242.76l-73.36-73.4c-5.794-5.794-13.799-9.378-22.64-9.378-17.683 0-32.018 14.335-32.018 32.018 0 8.841 3.584 16.846 9.378 22.64l128 128c5.792 5.798 13.797 9.385 22.64 9.385s16.848-3.587 22.64-9.385v0l128-128c5.798-5.792 9.385-13.797 9.385-22.64s-3.587-16.848-9.385-22.64v0z" />
<glyph unicode="&#xe032;" glyph-name="arrow-circle-up-left-fill" data-tags="arrow-circle-up-left-fill" d="M512 864c-229.75 0-416-186.25-416-416s186.25-416 416-416c229.75 0 416 186.25 416 416v0c-0.25 229.65-186.35 415.75-415.976 416h-0.024zM662.64 297.36c-5.792-5.798-13.797-9.385-22.64-9.385s-16.848 3.587-22.64 9.385v0l-201.36 201.4v-114.76c0-17.673-14.327-32-32-32s-32 14.327-32 32v0 192c0 17.673 14.327 32 32 32v0h192c17.673 0 32-14.327 32-32s-14.327-32-32-32v0h-114.76l201.4-201.36c5.798-5.792 9.385-13.797 9.385-22.64s-3.587-16.848-9.385-22.64v0z" />
<glyph unicode="&#xe034;" glyph-name="arrow-circle-up-right-fill" data-tags="arrow-circle-up-right-fill" d="M512 864c-229.75 0-416-186.25-416-416s186.25-416 416-416c229.75 0 416 186.25 416 416v0c-0.25 229.65-186.35 415.75-415.976 416h-0.024zM672 384c0-17.673-14.327-32-32-32s-32 14.327-32 32v0 114.76l-201.36-201.4c-5.794-5.794-13.799-9.378-22.64-9.378-17.683 0-32.018 14.335-32.018 32.018 0 8.841 3.584 16.846 9.378 22.64l201.4 201.36h-114.76c-17.673 0-32 14.327-32 32s14.327 32 32 32v0h192c17.673 0 32-14.327 32-32v0z" />
<glyph unicode="&#xe036;" glyph-name="arrow-clockwise-fill" data-tags="arrow-clockwise-fill" d="M960 736v-192c0-17.673-14.327-32-32-32v0h-192c-0.007 0-0.016 0-0.025 0-17.673 0-32 14.327-32 32 0 8.843 3.587 16.848 9.385 22.64v0l68 68-42.2 38.6-1 0.96c-57.905 57.883-137.887 93.683-226.231 93.683-176.731 0-320-143.269-320-320s143.269-320 320-320c85.071 0 162.388 33.196 219.705 87.341l-0.154-0.144c5.723 5.422 13.472 8.756 22 8.756 17.682 0 32.016-14.334 32.016-32.016 0-9.154-3.842-17.411-10.002-23.246l-0.015-0.014c-68.264-64.744-160.728-104.561-262.491-104.561-0.348 0-0.695 0-1.043 0.001h-5.226c-209.803 2.965-378.741 173.736-378.741 383.964 0 212.077 171.923 384 384 384 105.786 0 201.582-42.776 271.032-111.975l-0.011 0.011 43.72-40 78.64 78.8c5.792 5.799 13.797 9.386 22.641 9.386 17.673 0 32-14.327 32-32 0-0.065 0-0.131-0.001-0.196v0.010z" />
<glyph unicode="&#xe038;" glyph-name="arrow-counter-clockwise-fill" data-tags="arrow-counter-clockwise-fill" d="M896 448c0-0.010 0-0.022 0-0.035 0-210.263-168.993-381.055-378.566-383.962l-0.274-0.003h-5.16c-0.283-0.001-0.617-0.001-0.952-0.001-101.855 0-194.388 39.914-262.811 104.954l0.162-0.153c-6.174 5.849-10.016 14.106-10.016 23.26 0 17.682 14.334 32.016 32.016 32.016 8.528 0 16.277-3.334 22.015-8.77l-0.015 0.014c57.164-54.001 134.481-87.197 219.551-87.197 176.731 0 320 143.269 320 320s-143.269 320-320 320c-88.344 0-168.327-35.8-226.232-93.684l0.001 0.001c-0.327-0.353-0.666-0.68-1.024-0.986l-0.016-0.014-42.16-38.6 68-68c5.919-5.811 9.587-13.897 9.587-22.84 0-17.673-14.327-32-32-32-0.038 0-0.075 0-0.113 0h-191.994c-17.673 0-32 14.327-32 32v0 192c0 0.055-0.001 0.12-0.001 0.186 0 17.673 14.327 32 32 32 8.843 0 16.848-3.587 22.64-9.385v0l78.6-78.8 43.76 40c69.437 69.175 165.224 111.943 271 111.943 212.057 0 383.968-171.89 384-383.94v-0.003z" />
<glyph unicode="&#xe03a;" glyph-name="arrow-bend-double-up-left-fill" data-tags="arrow-bend-double-up-left-fill" d="M342.64 374.64c5.794-5.794 9.378-13.799 9.378-22.64 0-17.683-14.335-32.018-32.018-32.018-8.841 0-16.846 3.584-22.64 9.378l-192 192c-5.798 5.792-9.385 13.797-9.385 22.64s3.587 16.848 9.385 22.64v0l192 192c5.794 5.794 13.799 9.378 22.64 9.378 17.683 0 32.018-14.335 32.018-32.018 0-8.841-3.584-16.846-9.378-22.64l-169.4-169.36zM544 574.8v161.2c0 0.007 0 0.016 0 0.025 0 17.673-14.327 32-32 32-8.843 0-16.848-3.587-22.64-9.385v0l-192-192c-5.798-5.792-9.385-13.797-9.385-22.64s3.587-16.848 9.385-22.64v0l192-192c5.792-5.798 13.797-9.385 22.64-9.385 17.673 0 32 14.327 32 32 0 0.009 0 0.018 0 0.027v-0.001 158.52c180.037-17.135 319.773-167.474 320-350.497v-0.023c0-17.673 14.327-32 32-32s32 14.327 32 32v0c-0.283 218.387-168.56 397.382-382.522 414.704l-1.478 0.096z" />
<glyph unicode="&#xe03c;" glyph-name="arrow-bend-double-up-right-fill" data-tags="arrow-bend-double-up-right-fill" d="M918.64 521.36l-192-192c-5.794-5.794-13.799-9.378-22.64-9.378-17.683 0-32.018 14.335-32.018 32.018 0 8.841 3.584 16.846 9.378 22.64l169.4 169.36-169.4 169.36c-5.794 5.794-9.378 13.799-9.378 22.64 0 17.683 14.335 32.018 32.018 32.018 8.841 0 16.846-3.584 22.64-9.378v0l192-192c5.798-5.792 9.385-13.797 9.385-22.64s-3.587-16.848-9.385-22.64v0zM726.64 566.64l-192 192c-5.792 5.798-13.797 9.385-22.64 9.385-17.673 0-32-14.327-32-32 0-0.009 0-0.018 0-0.027v0.001-161.2c-215.441-17.419-383.718-196.413-384-414.772v-0.028c0-17.673 14.327-32 32-32s32 14.327 32 32v0c0.227 183.046 139.963 333.385 318.579 350.411l1.421 0.109v-158.52c0-0.007 0-0.016 0-0.025 0-17.673 14.327-32 32-32 8.843 0 16.848 3.587 22.64 9.385v0l192 192c5.798 5.792 9.385 13.797 9.385 22.64s-3.587 16.848-9.385 22.64v0z" />
<glyph unicode="&#xe03e;" glyph-name="arrow-down-fill" data-tags="arrow-down-fill" d="M822.64 361.36l-288-288c-5.792-5.798-13.797-9.385-22.64-9.385s-16.848 3.587-22.64 9.385v0l-288 288c-5.798 5.792-9.385 13.797-9.385 22.64 0 17.673 14.327 32 32 32 0.009 0 0.018 0 0.027 0h255.999v384c0 17.673 14.327 32 32 32s32-14.327 32-32v0-384h256c0.007 0 0.016 0 0.025 0 17.673 0 32-14.327 32-32 0-8.843-3.587-16.848-9.385-22.64v0z" />
<glyph unicode="&#xe040;" glyph-name="arrow-down-left-fill" data-tags="arrow-down-left-fill" d="M790.64 681.36l-281.4-281.36 185.4-185.36c5.798-5.792 9.385-13.797 9.385-22.64 0-17.673-14.327-32-32-32-0.009 0-0.018 0-0.027 0h-415.999c-17.673 0-32 14.327-32 32v0 416c0 0.007 0 0.016 0 0.025 0 17.673 14.327 32 32 32 8.843 0 16.848-3.587 22.64-9.385v0l185.36-185.4 281.36 281.4c5.794 5.794 13.799 9.378 22.64 9.378 17.683 0 32.018-14.335 32.018-32.018 0-8.841-3.584-16.846-9.378-22.64v0z" />
<glyph unicode="&#xe042;" glyph-name="arrow-down-right-fill" data-tags="arrow-down-right-fill" d="M800 608v-416c0-17.673-14.327-32-32-32v0h-416c-0.007 0-0.016 0-0.025 0-17.673 0-32 14.327-32 32 0 8.843 3.587 16.848 9.385 22.64v0l185.4 185.36-281.4 281.36c-5.794 5.794-9.378 13.799-9.378 22.64 0 17.683 14.335 32.018 32.018 32.018 8.841 0 16.846-3.584 22.64-9.378l281.36-281.4 185.36 185.4c5.792 5.798 13.797 9.385 22.64 9.385 17.673 0 32-14.327 32-32 0-0.009 0-0.018 0-0.027v0.001z" />
<glyph unicode="&#xe044;" glyph-name="arrow-elbow-down-left-fill" data-tags="arrow-elbow-down-left-fill" d="M800 832v-576c0-17.673-14.327-32-32-32v0h-352v-160c0-0.007 0-0.016 0-0.025 0-17.673-14.327-32-32-32-8.843 0-16.848 3.587-22.64 9.385v0l-192 192c-5.798 5.792-9.385 13.797-9.385 22.64s3.587 16.848 9.385 22.64v0l192 192c5.792 5.798 13.797 9.385 22.64 9.385 17.673 0 32-14.327 32-32 0-0.009 0-0.018 0-0.027v0.001-160h320v544c0 17.673 14.327 32 32 32s32-14.327 32-32v0z" />
<glyph unicode="&#xe046;" glyph-name="arrow-elbow-down-right-fill" data-tags="arrow-elbow-down-right-fill" d="M886.64 233.36l-192-192c-5.792-5.798-13.797-9.385-22.64-9.385-17.673 0-32 14.327-32 32 0 0.009 0 0.018 0 0.027v-0.001 160h-352c-17.673 0-32 14.327-32 32v0 576c0 17.673 14.327 32 32 32s32-14.327 32-32v0-544h320v160c0 0.007 0 0.016 0 0.025 0 17.673 14.327 32 32 32 8.843 0 16.848-3.587 22.64-9.385v0l192-192c5.798-5.792 9.385-13.797 9.385-22.64s-3.587-16.848-9.385-22.64v0z" />
<glyph unicode="&#xe048;" glyph-name="arrow-elbow-left-fill" data-tags="arrow-elbow-left-fill" d="M950.64 553.36l-384-384c-5.792-5.798-13.797-9.385-22.64-9.385s-16.848 3.587-22.64 9.385v0l-281.36 281.4-121.36-121.4c-5.792-5.798-13.797-9.385-22.64-9.385-17.673 0-32 14.327-32 32 0 0.009 0 0.018 0 0.027v-0.001 288c0 17.673 14.327 32 32 32v0h288c0.007 0 0.016 0 0.025 0 17.673 0 32-14.327 32-32 0-8.843-3.587-16.848-9.385-22.64l-121.4-121.36 258.76-258.76 361.36 361.4c5.794 5.794 13.799 9.378 22.64 9.378 17.683 0 32.018-14.335 32.018-32.018 0-8.841-3.584-16.846-9.378-22.64v0z" />
<glyph unicode="&#xe04a;" glyph-name="arrow-elbow-left-down-fill" data-tags="arrow-elbow-left-down-fill" d="M960 672c0-17.673-14.327-32-32-32v0h-544v-320h160c0.007 0 0.016 0 0.025 0 17.673 0 32-14.327 32-32 0-8.843-3.587-16.848-9.385-22.64v0l-192-192c-5.792-5.798-13.797-9.385-22.64-9.385s-16.848 3.587-22.64 9.385v0l-192 192c-5.798 5.792-9.385 13.797-9.385 22.64 0 17.673 14.327 32 32 32 0.009 0 0.018 0 0.027 0h159.999v352c0 17.673 14.327 32 32 32v0h576c17.673 0 32-14.327 32-32v0z" />
<glyph unicode="&#xe04c;" glyph-name="arrow-elbow-left-up-fill" data-tags="arrow-elbow-left-up-fill" d="M960 192c0-17.673-14.327-32-32-32v0h-576c-17.673 0-32 14.327-32 32v0 352h-160c-0.007 0-0.016 0-0.025 0-17.673 0-32 14.327-32 32 0 8.843 3.587 16.848 9.385 22.64v0l192 192c5.792 5.798 13.797 9.385 22.64 9.385s16.848-3.587 22.64-9.385v0l192-192c5.798-5.792 9.385-13.797 9.385-22.64 0-17.673-14.327-32-32-32-0.009 0-0.018 0-0.027 0h-159.999v-320h544c17.673 0 32-14.327 32-32v0z" />
<glyph unicode="&#xe04e;" glyph-name="arrow-elbow-right-fill" data-tags="arrow-elbow-right-fill" d="M960 640v-288c0-0.007 0-0.016 0-0.025 0-17.673-14.327-32-32-32-8.843 0-16.848 3.587-22.64 9.385l-121.36 121.4-281.36-281.4c-5.792-5.798-13.797-9.385-22.64-9.385s-16.848 3.587-22.64 9.385v0l-384 384c-5.794 5.794-9.378 13.799-9.378 22.64 0 17.683 14.335 32.018 32.018 32.018 8.841 0 16.846-3.584 22.64-9.378l361.36-361.4 258.76 258.76-121.4 121.36c-5.798 5.792-9.385 13.797-9.385 22.64 0 17.673 14.327 32 32 32 0.009 0 0.018 0 0.027 0h287.999c17.673 0 32-14.327 32-32v0z" />
<glyph unicode="&#xe050;" glyph-name="arrow-elbow-right-down-fill" data-tags="arrow-elbow-right-down-fill" d="M918.64 297.36l-192-192c-5.792-5.798-13.797-9.385-22.64-9.385s-16.848 3.587-22.64 9.385v0l-192 192c-5.798 5.792-9.385 13.797-9.385 22.64 0 17.673 14.327 32 32 32 0.009 0 0.018 0 0.027 0h159.999v320h-544c-17.673 0-32 14.327-32 32s14.327 32 32 32v0h576c17.673 0 32-14.327 32-32v0-352h160c0.007 0 0.016 0 0.025 0 17.673 0 32-14.327 32-32 0-8.843-3.587-16.848-9.385-22.64v0z" />
<glyph unicode="&#xe052;" glyph-name="arrow-elbow-right-up-fill" data-tags="arrow-elbow-right-up-fill" d="M893.56 563.76c-4.934-11.696-16.306-19.757-29.56-19.76h-160v-352c0-17.673-14.327-32-32-32v0h-576c-17.673 0-32 14.327-32 32s14.327 32 32 32v0h544v320h-160c-0.007 0-0.016 0-0.025 0-17.673 0-32 14.327-32 32 0 8.843 3.587 16.848 9.385 22.64v0l192 192c5.792 5.798 13.797 9.385 22.64 9.385s16.848-3.587 22.64-9.385v0l192-192c5.785-5.79 9.363-13.786 9.363-22.618 0-4.425-0.898-8.639-2.522-12.472l0.079 0.21z" />
<glyph unicode="&#xe054;" glyph-name="arrow-elbow-up-left-fill" data-tags="arrow-elbow-up-left-fill" d="M800 640v-576c0-17.673-14.327-32-32-32s-32 14.327-32 32v0 544h-320v-160c0-0.007 0-0.016 0-0.025 0-17.673-14.327-32-32-32-8.843 0-16.848 3.587-22.64 9.385v0l-192 192c-5.798 5.792-9.385 13.797-9.385 22.64s3.587 16.848 9.385 22.64v0l192 192c5.792 5.798 13.797 9.385 22.64 9.385 17.673 0 32-14.327 32-32 0-0.009 0-0.018 0-0.027v0.001-160h352c17.673 0 32-14.327 32-32v0z" />
<glyph unicode="&#xe056;" glyph-name="arrow-elbow-up-right-fill" data-tags="arrow-elbow-up-right-fill" d="M886.64 617.36l-192-192c-5.792-5.798-13.797-9.385-22.64-9.385-17.673 0-32 14.327-32 32 0 0.009 0 0.018 0 0.027v-0.001 160h-320v-544c0-17.673-14.327-32-32-32s-32 14.327-32 32v0 576c0 17.673 14.327 32 32 32v0h352v160c0 0.007 0 0.016 0 0.025 0 17.673 14.327 32 32 32 8.843 0 16.848-3.587 22.64-9.385v0l192-192c5.798-5.792 9.385-13.797 9.385-22.64s-3.587-16.848-9.385-22.64v0z" />
<glyph unicode="&#xe058;" glyph-name="arrow-left-fill" data-tags="arrow-left-fill" d="M896 448c0-17.673-14.327-32-32-32v0h-384v-256c0-0.007 0-0.016 0-0.025 0-17.673-14.327-32-32-32-8.843 0-16.848 3.587-22.64 9.385v0l-288 288c-5.798 5.792-9.385 13.797-9.385 22.64s3.587 16.848 9.385 22.64v0l288 288c5.792 5.798 13.797 9.385 22.64 9.385 17.673 0 32-14.327 32-32 0-0.009 0-0.018 0-0.027v0.001-256h384c17.673 0 32-14.327 32-32v0z" />
<glyph unicode="&#xe05a;" glyph-name="arrow-circle-left-fill" data-tags="arrow-circle-left-fill" d="M512 864c-229.75 0-416-186.25-416-416s186.25-416 416-416c229.75 0 416 186.25 416 416v0c-0.25 229.65-186.35 415.75-415.976 416h-0.024zM672 416h-242.76l73.4-73.36c5.794-5.794 9.378-13.799 9.378-22.64 0-17.683-14.335-32.018-32.018-32.018-8.841 0-16.846 3.584-22.64 9.378l-128 128c-5.798 5.792-9.385 13.797-9.385 22.64s3.587 16.848 9.385 22.64v0l128 128c5.794 5.794 13.799 9.378 22.64 9.378 17.683 0 32.018-14.335 32.018-32.018 0-8.841-3.584-16.846-9.378-22.64l-73.4-73.36h242.76c17.673 0 32-14.327 32-32s-14.327-32-32-32v0z" />
<glyph unicode="&#xe05c;" glyph-name="arrow-line-down-fill" data-tags="arrow-line-down-fill" d="M201.36 489.36c-5.798 5.792-9.385 13.797-9.385 22.64 0 17.673 14.327 32 32 32 0.009 0 0.018 0 0.027 0h255.999v288c0 17.673 14.327 32 32 32s32-14.327 32-32v0-288h256c0.007 0 0.016 0 0.025 0 17.673 0 32-14.327 32-32 0-8.843-3.587-16.848-9.385-22.64v0l-288-288c-5.792-5.798-13.797-9.385-22.64-9.385s-16.848 3.587-22.64 9.385v0zM864 128h-704c-17.673 0-32-14.327-32-32s14.327-32 32-32v0h704c17.673 0 32 14.327 32 32s-14.327 32-32 32v0z" />
<glyph unicode="&#xe05e;" glyph-name="arrow-line-down-left-fill" data-tags="arrow-line-down-left-fill" d="M758.64 598.64c5.798-5.792 9.385-13.797 9.385-22.64s-3.587-16.848-9.385-22.64v0l-233.4-233.36 169.4-169.36c5.798-5.792 9.385-13.797 9.385-22.64 0-17.673-14.327-32-32-32-0.009 0-0.018 0-0.027 0h-383.999c-17.673 0-32 14.327-32 32v0 384c0 0.007 0 0.016 0 0.025 0 17.673 14.327 32 32 32 8.843 0 16.848-3.587 22.64-9.385v0l169.36-169.4 233.36 233.4c5.792 5.798 13.797 9.385 22.64 9.385s16.848-3.587 22.64-9.385v0zM896 800h-704c-17.673 0-32-14.327-32-32s14.327-32 32-32v0h704c17.673 0 32 14.327 32 32s-14.327 32-32 32v0z" />
<glyph unicode="&#xe060;" glyph-name="arrow-line-down-right-fill" data-tags="arrow-line-down-right-fill" d="M896 800c0-17.673-14.327-32-32-32v0h-704c-17.673 0-32 14.327-32 32s14.327 32 32 32v0h704c17.673 0 32-14.327 32-32v0zM780.24 573.56c-3.623 1.545-7.838 2.443-12.262 2.443-8.832 0-16.828-3.578-22.618-9.363v0l-169.36-169.4-233.36 233.4c-5.794 5.794-13.799 9.378-22.64 9.378-17.683 0-32.018-14.335-32.018-32.018 0-8.841 3.584-16.846 9.378-22.64l233.4-233.36-169.4-169.36c-5.798-5.792-9.385-13.797-9.385-22.64 0-17.673 14.327-32 32-32 0.009 0 0.018 0 0.027 0h383.999c17.673 0 32 14.327 32 32v0 384c-0.003 13.254-8.064 24.626-19.55 29.481l-0.21 0.079z" />
<glyph unicode="&#xe062;" glyph-name="arrow-line-left-fill" data-tags="arrow-line-left-fill" d="M192 800v-704c0-17.673-14.327-32-32-32s-32 14.327-32 32v0 704c0 17.673 14.327 32 32 32s32-14.327 32-32v0zM896 480h-288v256c0 0.007 0 0.016 0 0.025 0 17.673-14.327 32-32 32-8.843 0-16.848-3.587-22.64-9.385v0l-288-288c-5.798-5.792-9.385-13.797-9.385-22.64s3.587-16.848 9.385-22.64v0l288-288c5.792-5.798 13.797-9.385 22.64-9.385 17.673 0 32 14.327 32 32 0 0.009 0 0.018 0 0.027v-0.001 256h288c17.673 0 32 14.327 32 32s-14.327 32-32 32v0z" />
<glyph unicode="&#xe064;" glyph-name="arrow-line-right-fill" data-tags="arrow-line-right-fill" d="M896 800v-704c0-17.673-14.327-32-32-32s-32 14.327-32 32v0 704c0 17.673 14.327 32 32 32s32-14.327 32-32v0zM470.64 758.64c-5.792 5.798-13.797 9.385-22.64 9.385-17.673 0-32-14.327-32-32 0-0.009 0-0.018 0-0.027v0.001-256h-288c-17.673 0-32-14.327-32-32s14.327-32 32-32v0h288v-256c0-0.007 0-0.016 0-0.025 0-17.673 14.327-32 32-32 8.843 0 16.848 3.587 22.64 9.385v0l288 288c5.798 5.792 9.385 13.797 9.385 22.64s-3.587 16.848-9.385 22.64v0z" />
<glyph unicode="&#xe066;" glyph-name="arrow-line-up-fill" data-tags="arrow-line-up-fill" d="M822.64 406.64c5.798-5.792 9.385-13.797 9.385-22.64 0-17.673-14.327-32-32-32-0.009 0-0.018 0-0.027 0h-255.999v-288c0-17.673-14.327-32-32-32s-32 14.327-32 32v0 288h-256c-0.007 0-0.016 0-0.025 0-17.673 0-32 14.327-32 32 0 8.843 3.587 16.848 9.385 22.64v0l288 288c5.792 5.798 13.797 9.385 22.64 9.385s16.848-3.587 22.64-9.385v0zM864 832h-704c-17.673 0-32-14.327-32-32s14.327-32 32-32v0h704c17.673 0 32 14.327 32 32s-14.327 32-32 32v0z" />
<glyph unicode="&#xe068;" glyph-name="arrow-line-up-left-fill" data-tags="arrow-line-up-left-fill" d="M256 384v384c0 17.673 14.327 32 32 32v0h384c0.007 0 0.016 0 0.025 0 17.673 0 32-14.327 32-32 0-8.843-3.587-16.848-9.385-22.64v0l-169.4-169.36 233.4-233.36c5.794-5.794 9.378-13.799 9.378-22.64 0-17.683-14.335-32.018-32.018-32.018-8.841 0-16.846 3.584-22.64 9.378l-233.36 233.4-169.36-169.4c-5.792-5.798-13.797-9.385-22.64-9.385-17.673 0-32 14.327-32 32 0 0.009 0 0.018 0 0.027v-0.001zM896 160h-704c-17.673 0-32-14.327-32-32s14.327-32 32-32v0h704c17.673 0 32 14.327 32 32s-14.327 32-32 32v0z" />
<glyph unicode="&#xe06a;" glyph-name="arrow-line-up-right-fill" data-tags="arrow-line-up-right-fill" d="M297.36 265.36c-5.798 5.792-9.385 13.797-9.385 22.64s3.587 16.848 9.385 22.64v0l233.4 233.36-169.4 169.36c-5.798 5.792-9.385 13.797-9.385 22.64 0 17.673 14.327 32 32 32 0.009 0 0.018 0 0.027 0h383.999c17.673 0 32-14.327 32-32v0-384c0-0.007 0-0.016 0-0.025 0-17.673-14.327-32-32-32-8.843 0-16.848 3.587-22.64 9.385v0l-169.36 169.4-233.36-233.4c-5.792-5.798-13.797-9.385-22.64-9.385s-16.848 3.587-22.64 9.385v0zM864 128h-704c-17.673 0-32-14.327-32-32s14.327-32 32-32v0h704c17.673 0 32 14.327 32 32s-14.327 32-32 32v0z" />
<glyph unicode="&#xe06c;" glyph-name="arrow-right-fill" data-tags="arrow-right-fill" d="M886.64 425.36l-288-288c-5.792-5.798-13.797-9.385-22.64-9.385-17.673 0-32 14.327-32 32 0 0.009 0 0.018 0 0.027v-0.001 256h-384c-17.673 0-32 14.327-32 32s14.327 32 32 32v0h384v256c0 0.007 0 0.016 0 0.025 0 17.673 14.327 32 32 32 8.843 0 16.848-3.587 22.64-9.385v0l288-288c5.798-5.792 9.385-13.797 9.385-22.64s-3.587-16.848-9.385-22.64v0z" />
<glyph unicode="&#xe06e;" glyph-name="arrow-square-down-fill" data-tags="arrow-square-down-fill" d="M832 832h-640c-35.346 0-64-28.654-64-64v0-640c0-35.346 28.654-64 64-64v0h640c35.346 0 64 28.654 64 64v0 640c0 35.346-28.654 64-64 64v0zM662.64 393.36l-128-128c-5.792-5.798-13.797-9.385-22.64-9.385s-16.848 3.587-22.64 9.385v0l-128 128c-5.794 5.794-9.378 13.799-9.378 22.64 0 17.683 14.335 32.018 32.018 32.018 8.841 0 16.846-3.584 22.64-9.378l73.36-73.4v242.76c0 17.673 14.327 32 32 32s32-14.327 32-32v0-242.76l73.36 73.4c5.794 5.794 13.799 9.378 22.64 9.378 17.683 0 32.018-14.335 32.018-32.018 0-8.841-3.584-16.846-9.378-22.64v0z" />
<glyph unicode="&#xe070;" glyph-name="arrow-square-down-left-fill" data-tags="arrow-square-down-left-fill" d="M832 832h-640c-35.346 0-64-28.654-64-64v0-640c0-35.346 28.654-64 64-64v0h640c35.346 0 64 28.654 64 64v0 640c0 35.346-28.654 64-64 64v0zM662.64 553.36l-201.4-201.36h114.76c17.673 0 32-14.327 32-32s-14.327-32-32-32v0h-192c-17.673 0-32 14.327-32 32v0 192c0 17.673 14.327 32 32 32s32-14.327 32-32v0-114.76l201.36 201.4c5.794 5.794 13.799 9.378 22.64 9.378 17.683 0 32.018-14.335 32.018-32.018 0-8.841-3.584-16.846-9.378-22.64v0z" />
<glyph unicode="&#xe072;" glyph-name="arrow-square-down-right-fill" data-tags="arrow-square-down-right-fill" d="M832 832h-640c-35.346 0-64-28.654-64-64v0-640c0-35.346 28.654-64 64-64v0h640c35.346 0 64 28.654 64 64v0 640c0 35.346-28.654 64-64 64v0zM672 320c0-17.673-14.327-32-32-32v0h-192c-17.673 0-32 14.327-32 32s14.327 32 32 32v0h114.76l-201.4 201.36c-5.794 5.794-9.378 13.799-9.378 22.64 0 17.683 14.335 32.018 32.018 32.018 8.841 0 16.846-3.584 22.64-9.378l201.36-201.4v114.76c0 17.673 14.327 32 32 32s32-14.327 32-32v0z" />
<glyph unicode="&#xe074;" glyph-name="arrow-square-left-fill" data-tags="arrow-square-left-fill" d="M832 832h-640c-35.346 0-64-28.654-64-64v0-640c0-35.346 28.654-64 64-64v0h640c35.346 0 64 28.654 64 64v0 640c0 35.346-28.654 64-64 64v0zM672 416h-242.76l73.4-73.36c5.794-5.794 9.378-13.799 9.378-22.64 0-17.683-14.335-32.018-32.018-32.018-8.841 0-16.846 3.584-22.64 9.378l-128 128c-5.798 5.792-9.385 13.797-9.385 22.64s3.587 16.848 9.385 22.64v0l128 128c5.794 5.794 13.799 9.378 22.64 9.378 17.683 0 32.018-14.335 32.018-32.018 0-8.841-3.584-16.846-9.378-22.64l-73.4-73.36h242.76c17.673 0 32-14.327 32-32s-14.327-32-32-32v0z" />
<glyph unicode="&#xe076;" glyph-name="arrow-square-right-fill" data-tags="arrow-square-right-fill" d="M832 832h-640c-35.346 0-64-28.654-64-64v0-640c0-35.346 28.654-64 64-64v0h640c35.346 0 64 28.654 64 64v0 640c0 35.346-28.654 64-64 64v0zM694.64 425.36l-128-128c-5.794-5.794-13.799-9.378-22.64-9.378-17.683 0-32.018 14.335-32.018 32.018 0 8.841 3.584 16.846 9.378 22.64l73.4 73.36h-242.76c-17.673 0-32 14.327-32 32s14.327 32 32 32v0h242.76l-73.4 73.36c-5.794 5.794-9.378 13.799-9.378 22.64 0 17.683 14.335 32.018 32.018 32.018 8.841 0 16.846-3.584 22.64-9.378l128-128c5.798-5.792 9.385-13.797 9.385-22.64s-3.587-16.848-9.385-22.64v0z" />
<glyph unicode="&#xe078;" glyph-name="arrow-square-up-fill" data-tags="arrow-square-up-fill" d="M832 832h-640c-35.346 0-64-28.654-64-64v0-640c0-35.346 28.654-64 64-64v0h640c35.346 0 64 28.654 64 64v0 640c0 35.346-28.654 64-64 64v0zM662.64 457.36c-5.792-5.798-13.797-9.385-22.64-9.385s-16.848 3.587-22.64 9.385l-73.36 73.4v-242.76c0-17.673-14.327-32-32-32s-32 14.327-32 32v0 242.76l-73.36-73.4c-5.794-5.794-13.799-9.378-22.64-9.378-17.683 0-32.018 14.335-32.018 32.018 0 8.841 3.584 16.846 9.378 22.64l128 128c5.792 5.798 13.797 9.385 22.64 9.385s16.848-3.587 22.64-9.385v0l128-128c5.798-5.792 9.385-13.797 9.385-22.64s-3.587-16.848-9.385-22.64v0z" />
<glyph unicode="&#xe07a;" glyph-name="arrow-square-up-left-fill" data-tags="arrow-square-up-left-fill" d="M832 832h-640c-35.346 0-64-28.654-64-64v0-640c0-35.346 28.654-64 64-64v0h640c35.346 0 64 28.654 64 64v0 640c0 35.346-28.654 64-64 64v0zM662.64 297.36c-5.792-5.798-13.797-9.385-22.64-9.385s-16.848 3.587-22.64 9.385v0l-201.36 201.4v-114.76c0-17.673-14.327-32-32-32s-32 14.327-32 32v0 192c0 17.673 14.327 32 32 32v0h192c17.673 0 32-14.327 32-32s-14.327-32-32-32v0h-114.76l201.4-201.36c5.798-5.792 9.385-13.797 9.385-22.64s-3.587-16.848-9.385-22.64v0z" />
<glyph unicode="&#xe07c;" glyph-name="arrow-square-up-right-fill" data-tags="arrow-square-up-right-fill" d="M832 832h-640c-35.346 0-64-28.654-64-64v0-640c0-35.346 28.654-64 64-64v0h640c35.346 0 64 28.654 64 64v0 640c0 35.346-28.654 64-64 64v0zM672 384c0-17.673-14.327-32-32-32s-32 14.327-32 32v0 114.76l-201.36-201.4c-5.794-5.794-13.799-9.378-22.64-9.378-17.683 0-32.018 14.335-32.018 32.018 0 8.841 3.584 16.846 9.378 22.64l201.4 201.36h-114.76c-17.673 0-32 14.327-32 32s14.327 32 32 32v0h192c17.673 0 32-14.327 32-32v0z" />
<glyph unicode="&#xe07e;" glyph-name="arrow-u-down-left-fill" data-tags="arrow-u-down-left-fill" d="M928 512c-0.159-141.321-114.679-255.841-255.985-256h-320.015v-160c0-0.007 0-0.016 0-0.025 0-17.673-14.327-32-32-32-8.843 0-16.848 3.587-22.64 9.385v0l-192 192c-5.798 5.792-9.385 13.797-9.385 22.64s3.587 16.848 9.385 22.64v0l192 192c5.792 5.798 13.797 9.385 22.64 9.385 17.673 0 32-14.327 32-32 0-0.009 0-0.018 0-0.027v0.001-160h320c106.039 0 192 85.961 192 192s-85.961 192-192 192v0h-352c-17.673 0-32 14.327-32 32s14.327 32 32 32v0h352c141.321-0.159 255.841-114.679 256-255.985v-0.015z" />
<glyph unicode="&#xe080;" glyph-name="arrow-u-down-right-fill" data-tags="arrow-u-down-right-fill" d="M918.64 265.36l-192-192c-5.792-5.798-13.797-9.385-22.64-9.385-17.673 0-32 14.327-32 32 0 0.009 0 0.018 0 0.027v-0.001 160h-320c-141.385 0-256 114.615-256 256s114.615 256 256 256v0h352c17.673 0 32-14.327 32-32s-14.327-32-32-32v0h-352c-106.039 0-192-85.961-192-192s85.961-192 192-192v0h320v160c0 0.007 0 0.016 0 0.025 0 17.673 14.327 32 32 32 8.843 0 16.848-3.587 22.64-9.385v0l192-192c5.798-5.792 9.385-13.797 9.385-22.64s-3.587-16.848-9.385-22.64v0z" />
<glyph unicode="&#xe082;" glyph-name="arrow-u-left-down-fill" data-tags="arrow-u-left-down-fill" d="M832 608v-352c0-17.673-14.327-32-32-32s-32 14.327-32 32v0 352c0 106.039-85.961 192-192 192s-192-85.961-192-192v0-320h160c0.007 0 0.016 0 0.025 0 17.673 0 32-14.327 32-32 0-8.843-3.587-16.848-9.385-22.64v0l-192-192c-5.792-5.798-13.797-9.385-22.64-9.385s-16.848 3.587-22.64 9.385v0l-192 192c-5.798 5.792-9.385 13.797-9.385 22.64 0 17.673 14.327 32 32 32 0.009 0 0.018 0 0.027 0h159.999v320c0 141.385 114.615 256 256 256s256-114.615 256-256v0z" />
<glyph unicode="&#xe084;" glyph-name="arrow-u-left-up-fill" data-tags="arrow-u-left-up-fill" d="M832 640v-352c0-141.385-114.615-256-256-256s-256 114.615-256 256v0 320h-160c-0.007 0-0.016 0-0.025 0-17.673 0-32 14.327-32 32 0 8.843 3.587 16.848 9.385 22.64v0l192 192c5.792 5.798 13.797 9.385 22.64 9.385s16.848-3.587 22.64-9.385v0l192-192c5.798-5.792 9.385-13.797 9.385-22.64 0-17.673-14.327-32-32-32-0.009 0-0.018 0-0.027 0h-159.999v-320c0-106.039 85.961-192 192-192s192 85.961 192 192v0 352c0 17.673 14.327 32 32 32s32-14.327 32-32v0z" />
<glyph unicode="&#xe086;" glyph-name="arrow-u-right-down-fill" data-tags="arrow-u-right-down-fill" d="M886.64 233.36l-192-192c-5.792-5.798-13.797-9.385-22.64-9.385s-16.848 3.587-22.64 9.385v0l-192 192c-5.798 5.792-9.385 13.797-9.385 22.64 0 17.673 14.327 32 32 32 0.009 0 0.018 0 0.027 0h159.999v320c0 106.039-85.961 192-192 192s-192-85.961-192-192v0-352c0-17.673-14.327-32-32-32s-32 14.327-32 32v0 352c0 141.385 114.615 256 256 256s256-114.615 256-256v0-320h160c0.007 0 0.016 0 0.025 0 17.673 0 32-14.327 32-32 0-8.843-3.587-16.848-9.385-22.64v0z" />
<glyph unicode="&#xe088;" glyph-name="arrow-u-right-up-fill" data-tags="arrow-u-right-up-fill" d="M893.56 627.76c-4.934-11.696-16.306-19.757-29.56-19.76h-160v-320c0-141.385-114.615-256-256-256s-256 114.615-256 256v0 352c0 17.673 14.327 32 32 32s32-14.327 32-32v0-352c0-106.039 85.961-192 192-192s192 85.961 192 192v0 320h-160c-0.007 0-0.016 0-0.025 0-17.673 0-32 14.327-32 32 0 8.843 3.587 16.848 9.385 22.64v0l192 192c5.792 5.798 13.797 9.385 22.64 9.385s16.848-3.587 22.64-9.385v0l192-192c5.785-5.79 9.363-13.786 9.363-22.618 0-4.425-0.898-8.639-2.522-12.472l0.079 0.21z" />
<glyph unicode="&#xe08a;" glyph-name="arrow-u-up-left-fill" data-tags="arrow-u-up-left-fill" d="M928 384c-0.159-141.321-114.679-255.841-255.985-256h-352.015c-17.673 0-32 14.327-32 32s14.327 32 32 32v0h352c106.039 0 192 85.961 192 192s-85.961 192-192 192v0h-320v-160c0-0.007 0-0.016 0-0.025 0-17.673-14.327-32-32-32-8.843 0-16.848 3.587-22.64 9.385v0l-192 192c-5.798 5.792-9.385 13.797-9.385 22.64s3.587 16.848 9.385 22.64v0l192 192c5.792 5.798 13.797 9.385 22.64 9.385 17.673 0 32-14.327 32-32 0-0.009 0-0.018 0-0.027v0.001-160h320c141.321-0.159 255.841-114.679 256-255.985v-0.015z" />
<glyph unicode="&#xe08c;" glyph-name="arrow-u-up-right-fill" data-tags="arrow-u-up-right-fill" d="M672 416v160h-320c-106.039 0-192-85.961-192-192s85.961-192 192-192v0h352c17.673 0 32-14.327 32-32s-14.327-32-32-32v0h-352c-141.385 0-256 114.615-256 256s114.615 256 256 256v0h320v160c0 0.007 0 0.016 0 0.025 0 17.673 14.327 32 32 32 8.843 0 16.848-3.587 22.64-9.385v0l192-192c5.798-5.792 9.385-13.797 9.385-22.64s-3.587-16.848-9.385-22.64v0l-192-192c-5.792-5.798-13.797-9.385-22.64-9.385-17.673 0-32 14.327-32 32 0 0.009 0 0.018 0 0.027v-0.001z" />
<glyph unicode="&#xe08e;" glyph-name="arrow-up-fill" data-tags="arrow-up-fill" d="M829.56 499.76c-4.934-11.696-16.306-19.757-29.56-19.76h-256v-384c0-17.673-14.327-32-32-32s-32 14.327-32 32v0 384h-256c-0.007 0-0.016 0-0.025 0-17.673 0-32 14.327-32 32 0 8.843 3.587 16.848 9.385 22.64v0l288 288c5.792 5.798 13.797 9.385 22.64 9.385s16.848-3.587 22.64-9.385v0l288-288c5.785-5.79 9.363-13.786 9.363-22.618 0-4.425-0.898-8.639-2.522-12.472l0.079 0.21z" />
<glyph unicode="&#xe090;" glyph-name="arrow-up-left-fill" data-tags="arrow-up-left-fill" d="M790.64 169.36c-5.792-5.798-13.797-9.385-22.64-9.385s-16.848 3.587-22.64 9.385v0l-281.36 281.4-185.36-185.4c-5.792-5.798-13.797-9.385-22.64-9.385-17.673 0-32 14.327-32 32 0 0.009 0 0.018 0 0.027v-0.001 416c0 17.673 14.327 32 32 32v0h416c0.007 0 0.016 0 0.025 0 17.673 0 32-14.327 32-32 0-8.843-3.587-16.848-9.385-22.64v0l-185.4-185.36 281.4-281.36c5.798-5.792 9.385-13.797 9.385-22.64s-3.587-16.848-9.385-22.64v0z" />
<glyph unicode="&#xe092;" glyph-name="arrow-up-right-fill" data-tags="arrow-up-right-fill" d="M800 704v-416c0-0.007 0-0.016 0-0.025 0-17.673-14.327-32-32-32-8.843 0-16.848 3.587-22.64 9.385v0l-185.36 185.4-281.36-281.4c-5.794-5.794-13.799-9.378-22.64-9.378-17.683 0-32.018 14.335-32.018 32.018 0 8.841 3.584 16.846 9.378 22.64v0l281.4 281.36-185.4 185.36c-5.798 5.792-9.385 13.797-9.385 22.64 0 17.673 14.327 32 32 32 0.009 0 0.018 0 0.027 0h415.999c17.673 0 32-14.327 32-32v0z" />
<glyph unicode="&#xe094;" glyph-name="arrows-clockwise-fill" data-tags="arrows-clockwise-fill" d="M896 768v-192c0-17.673-14.327-32-32-32v0h-192c-0.007 0-0.016 0-0.025 0-17.673 0-32 14.327-32 32 0 8.843 3.587 16.848 9.385 22.64v0l73.24 73.36c-56.758 54.448-133.865 88.066-218.823 88.36h-1.857c-0.185 0-0.404 0.001-0.624 0.001-86.855 0-165.579-34.812-222.981-91.245l0.045 0.044c-5.702-5.333-13.387-8.608-21.836-8.608-17.673 0-32 14.327-32 32 0 8.708 3.479 16.604 9.122 22.374l-0.006-0.006c69.16 67.617 163.886 109.335 268.357 109.335 103.318 0 197.106-40.804 266.128-107.175l-0.125 0.12 73.44 73.44c5.784 5.751 13.757 9.305 22.56 9.305 17.654 0 31.969-14.296 32-31.942v-0.003zM745.64 226.84c-57.629-56.325-136.553-91.076-223.593-91.076-85.601 0-163.353 33.612-220.776 88.357l0.128-0.121 73.24 73.24c5.871 5.804 9.506 13.857 9.506 22.76 0 17.673-14.327 32-32 32-0.051 0-0.103 0-0.154 0h-191.992c-17.673 0-32-14.327-32-32v0-192c0-0.007 0-0.016 0-0.025 0-17.673 14.327-32 32-32 8.843 0 16.848 3.587 22.64 9.385l73.36 73.44c68.309-65.992 161.367-106.748 263.943-107.040h2.177c0.292-0.001 0.637-0.001 0.983-0.001 104.133 0 198.52 41.728 267.352 109.375l-0.055-0.054c5.638 5.764 9.116 13.66 9.116 22.368 0 17.673-14.327 32-32 32-8.45 0-16.135-3.275-21.854-8.625l0.018 0.017z" />
<glyph unicode="&#xe096;" glyph-name="arrows-counter-clockwise-fill" data-tags="arrows-counter-clockwise-fill" d="M352 544h-192c-17.673 0-32 14.327-32 32v0 192c0 0.007 0 0.016 0 0.025 0 17.673 14.327 32 32 32 8.843 0 16.848-3.587 22.64-9.385l73.36-73.44c68.309 65.992 161.367 106.748 263.943 107.040h2.177c0.292 0.001 0.637 0.001 0.983 0.001 104.133 0 198.52-41.728 267.352-109.375l-0.055 0.054c5.638-5.764 9.116-13.66 9.116-22.368 0-17.673-14.327-32-32-32-8.45 0-16.135 3.275-21.854 8.625l0.018-0.017c-57.344 56.317-136.019 91.081-222.814 91.081-0.262 0-0.524 0-0.786-0.001h-1.759c-85.014-0.248-162.138-33.827-219.034-88.348l0.114 0.108 73.24-73.36c5.798-5.792 9.385-13.797 9.385-22.64 0-17.673-14.327-32-32-32-0.009 0-0.018 0-0.027 0h0.001zM864 352h-192c-0.007 0-0.016 0-0.025 0-17.673 0-32-14.327-32-32 0-8.843 3.587-16.848 9.385-22.64v0l73.24-73.36c-56.758-54.448-133.865-88.066-218.823-88.36h-1.857c-0.221-0.001-0.483-0.001-0.746-0.001-86.795 0-165.47 34.764-222.862 91.127l0.048-0.047c-5.815 5.945-13.919 9.632-22.884 9.632-17.673 0-32-14.327-32-32 0-9.223 3.902-17.535 10.146-23.375l0.018-0.017c68.777-67.593 163.164-109.321 267.297-109.321 0.345 0 0.691 0 1.036 0.001h2.027c102.633 0.292 195.691 41.048 264.11 107.145l-0.11-0.105 73.44-73.44c5.784-5.751 13.757-9.305 22.56-9.305 17.673 0 32 14.327 32 32 0 0.023 0 0.046 0 0.069v-0.004 192c0 17.673-14.327 32-32 32v0z" />
<glyph unicode="&#xe098;" glyph-name="arrows-down-up-fill" data-tags="arrows-down-up-fill" d="M477.56 268.24c1.545-3.623 2.443-7.838 2.443-12.262 0-8.832-3.578-16.828-9.363-22.618l-128-128c-5.792-5.798-13.797-9.385-22.64-9.385s-16.848 3.587-22.64 9.385v0l-128 128c-5.798 5.792-9.385 13.797-9.385 22.64 0 17.673 14.327 32 32 32 0.009 0 0.018 0 0.027 0h95.999v480c0 17.673 14.327 32 32 32s32-14.327 32-32v0-480h96c13.254-0.003 24.626-8.064 29.481-19.55l0.079-0.21zM854.64 662.64l-128 128c-5.792 5.798-13.797 9.385-22.64 9.385s-16.848-3.587-22.64-9.385v0l-128-128c-5.798-5.792-9.385-13.797-9.385-22.64 0-17.673 14.327-32 32-32 0.009 0 0.018 0 0.027 0h95.999v-480c0-17.673 14.327-32 32-32s32 14.327 32 32v0 480h96c0.007 0 0.016 0 0.025 0 17.673 0 32 14.327 32 32 0 8.843-3.587 16.848-9.385 22.64v0z" />
<glyph unicode="&#xe09a;" glyph-name="arrows-in-fill" data-tags="arrows-in-fill" d="M576 544v160c0 0.007 0 0.016 0 0.025 0 17.673 14.327 32 32 32 8.843 0 16.848-3.587 22.64-9.385l57.36-57.4 121.36 121.4c5.794 5.794 13.799 9.378 22.64 9.378 17.683 0 32.018-14.335 32.018-32.018 0-8.841-3.584-16.846-9.378-22.64v0l-121.4-121.36 57.4-57.36c5.798-5.792 9.385-13.797 9.385-22.64 0-17.673-14.327-32-32-32-0.009 0-0.018 0-0.027 0h-159.999c-17.673 0-32 14.327-32 32v0zM416 384h-160c-0.007 0-0.016 0-0.025 0-17.673 0-32-14.327-32-32 0-8.843 3.587-16.848 9.385-22.64l57.4-57.36-121.4-121.36c-5.794-5.794-9.378-13.799-9.378-22.64 0-17.683 14.335-32.018 32.018-32.018 8.841 0 16.846 3.584 22.64 9.378v0l121.36 121.4 57.36-57.4c5.792-5.798 13.797-9.385 22.64-9.385 17.673 0 32 14.327 32 32 0 0.009 0 0.018 0 0.027v-0.001 160c0 17.673-14.327 32-32 32v0zM428.24 733.56c-3.623 1.545-7.838 2.443-12.262 2.443-8.832 0-16.828-3.578-22.618-9.363v0l-57.36-57.4-121.36 121.4c-5.794 5.794-13.799 9.378-22.64 9.378-17.683 0-32.018-14.335-32.018-32.018 0-8.841 3.584-16.846 9.378-22.64l121.4-121.36-57.4-57.36c-5.798-5.792-9.385-13.797-9.385-22.64 0-17.673 14.327-32 32-32 0.009 0 0.018 0 0.027 0h159.999c17.673 0 32 14.327 32 32v0 160c-0.003 13.254-8.064 24.626-19.55 29.481l-0.21 0.079zM733.24 272l57.4 57.36c5.798 5.792 9.385 13.797 9.385 22.64 0 17.673-14.327 32-32 32-0.009 0-0.018 0-0.027 0h-159.999c-17.673 0-32-14.327-32-32v0-160c0-0.007 0-0.016 0-0.025 0-17.673 14.327-32 32-32 8.843 0 16.848 3.587 22.64 9.385l57.36 57.4 121.36-121.4c5.794-5.794 13.799-9.378 22.64-9.378 17.683 0 32.018 14.335 32.018 32.018 0 8.841-3.584 16.846-9.378 22.64v0z" />
<glyph unicode="&#xe09c;" glyph-name="arrows-in-cardinal-fill" data-tags="arrows-in-cardinal-fill" d="M406.64 425.36l-128-128c-5.792-5.798-13.797-9.385-22.64-9.385-17.673 0-32 14.327-32 32 0 0.009 0 0.018 0 0.027v-0.001 96h-128c-17.673 0-32 14.327-32 32s14.327 32 32 32v0h128v96c0 0.007 0 0.016 0 0.025 0 17.673 14.327 32 32 32 8.843 0 16.848-3.587 22.64-9.385v0l128-128c5.798-5.792 9.385-13.797 9.385-22.64s-3.587-16.848-9.385-22.64v0zM489.36 553.36c5.792-5.798 13.797-9.385 22.64-9.385s16.848 3.587 22.64 9.385v0l128 128c5.798 5.792 9.385 13.797 9.385 22.64 0 17.673-14.327 32-32 32-0.009 0-0.018 0-0.027 0h-95.999v128c0 17.673-14.327 32-32 32s-32-14.327-32-32v0-128h-96c-0.007 0-0.016 0-0.025 0-17.673 0-32-14.327-32-32 0-8.843 3.587-16.848 9.385-22.64v0zM534.64 342.64c-5.792 5.798-13.797 9.385-22.64 9.385s-16.848-3.587-22.64-9.385v0l-128-128c-5.798-5.792-9.385-13.797-9.385-22.64 0-17.673 14.327-32 32-32 0.009 0 0.018 0 0.027 0h95.999v-128c0-17.673 14.327-32 32-32s32 14.327 32 32v0 128h96c0.007 0 0.016 0 0.025 0 17.673 0 32 14.327 32 32 0 8.843-3.587 16.848-9.385 22.64v0zM928 480h-128v96c0 0.007 0 0.016 0 0.025 0 17.673-14.327 32-32 32-8.843 0-16.848-3.587-22.64-9.385v0l-128-128c-5.798-5.792-9.385-13.797-9.385-22.64s3.587-16.848 9.385-22.64v0l128-128c5.792-5.798 13.797-9.385 22.64-9.385 17.673 0 32 14.327 32 32 0 0.009 0 0.018 0 0.027v-0.001 96h128c17.673 0 32 14.327 32 32s-14.327 32-32 32v0z" />
<glyph unicode="&#xe09e;" glyph-name="arrows-in-simple-fill" data-tags="arrows-in-simple-fill" d="M480 384v-192c0-0.007 0-0.016 0-0.025 0-17.673-14.327-32-32-32-8.843 0-16.848 3.587-22.64 9.385l-73.36 73.4-137.36-137.4c-5.794-5.794-13.799-9.378-22.64-9.378-17.683 0-32.018 14.335-32.018 32.018 0 8.841 3.584 16.846 9.378 22.64v0l137.4 137.36-73.4 73.36c-5.798 5.792-9.385 13.797-9.385 22.64 0 17.673 14.327 32 32 32 0.009 0 0.018 0 0.027 0h191.999c17.673 0 32-14.327 32-32v0zM854.64 790.64c-5.792 5.798-13.797 9.385-22.64 9.385s-16.848-3.587-22.64-9.385l-137.36-137.4-73.36 73.4c-5.792 5.798-13.797 9.385-22.64 9.385-17.673 0-32-14.327-32-32 0-0.009 0-0.018 0-0.027v0.001-192c0-17.673 14.327-32 32-32v0h192c0.007 0 0.016 0 0.025 0 17.673 0 32 14.327 32 32 0 8.843-3.587 16.848-9.385 22.64l-73.4 73.36 137.4 137.36c5.798 5.792 9.385 13.797 9.385 22.64s-3.587 16.848-9.385 22.64v0z" />
<glyph unicode="&#xe0a0;" glyph-name="arrows-left-right-fill" data-tags="arrows-left-right-fill" d="M169.36 617.36c-5.798 5.792-9.385 13.797-9.385 22.64s3.587 16.848 9.385 22.64v0l128 128c5.792 5.798 13.797 9.385 22.64 9.385 17.673 0 32-14.327 32-32 0-0.009 0-0.018 0-0.027v0.001-96h480c17.673 0 32-14.327 32-32s-14.327-32-32-32v0h-480v-96c0-0.007 0-0.016 0-0.025 0-17.673-14.327-32-32-32-8.843 0-16.848 3.587-22.64 9.385v0zM854.64 278.64l-128 128c-5.792 5.798-13.797 9.385-22.64 9.385-17.673 0-32-14.327-32-32 0-0.009 0-0.018 0-0.027v0.001-96h-480c-17.673 0-32-14.327-32-32s14.327-32 32-32v0h480v-96c0-0.007 0-0.016 0-0.025 0-17.673 14.327-32 32-32 8.843 0 16.848 3.587 22.64 9.385v0l128 128c5.798 5.792 9.385 13.797 9.385 22.64s-3.587 16.848-9.385 22.64v0z" />
<glyph unicode="&#xe0a2;" glyph-name="arrows-out-fill" data-tags="arrows-out-fill" d="M438.64 374.64c5.798-5.792 9.385-13.797 9.385-22.64s-3.587-16.848-9.385-22.64l-105.4-105.36 73.4-73.36c5.798-5.792 9.385-13.797 9.385-22.64 0-17.673-14.327-32-32-32-0.009 0-0.018 0-0.027 0h-191.999c-17.673 0-32 14.327-32 32v0 192c0 0.007 0 0.016 0 0.025 0 17.673 14.327 32 32 32 8.843 0 16.848-3.587 22.64-9.385l73.36-73.4 105.36 105.4c5.792 5.798 13.797 9.385 22.64 9.385s16.848-3.587 22.64-9.385v0zM333.24 672l73.4 73.36c5.798 5.792 9.385 13.797 9.385 22.64 0 17.673-14.327 32-32 32-0.009 0-0.018 0-0.027 0h-191.999c-17.673 0-32-14.327-32-32v0-192c0-0.007 0-0.016 0-0.025 0-17.673 14.327-32 32-32 8.843 0 16.848 3.587 22.64 9.385l73.36 73.4 105.36-105.4c5.794-5.794 13.799-9.378 22.64-9.378 17.683 0 32.018 14.335 32.018 32.018 0 8.841-3.584 16.846-9.378 22.64v0zM832 800h-192c-0.007 0-0.016 0-0.025 0-17.673 0-32-14.327-32-32 0-8.843 3.587-16.848 9.385-22.64l73.4-73.36-105.4-105.36c-5.794-5.794-9.378-13.799-9.378-22.64 0-17.683 14.335-32.018 32.018-32.018 8.841 0 16.846 3.584 22.64 9.378l105.36 105.4 73.36-73.4c5.792-5.798 13.797-9.385 22.64-9.385 17.673 0 32 14.327 32 32 0 0.009 0 0.018 0 0.027v-0.001 192c0 17.673-14.327 32-32 32v0zM844.24 349.56c-3.623 1.545-7.838 2.443-12.262 2.443-8.832 0-16.828-3.578-22.618-9.363v0l-73.36-73.4-105.36 105.4c-5.794 5.794-13.799 9.378-22.64 9.378-17.683 0-32.018-14.335-32.018-32.018 0-8.841 3.584-16.846 9.378-22.64l105.4-105.36-73.4-73.36c-5.798-5.792-9.385-13.797-9.385-22.64 0-17.673 14.327-32 32-32 0.009 0 0.018 0 0.027 0h191.999c17.673 0 32 14.327 32 32v0 192c-0.003 13.254-8.064 24.626-19.55 29.481l-0.21 0.079z" />
<glyph unicode="&#xe0a4;" glyph-name="arrows-out-cardinal-fill" data-tags="arrows-out-cardinal-fill" d="M384 416h-128v-96c0-0.007 0-0.016 0-0.025 0-17.673-14.327-32-32-32-8.843 0-16.848 3.587-22.64 9.385v0l-128 128c-5.798 5.792-9.385 13.797-9.385 22.64s3.587 16.848 9.385 22.64v0l128 128c5.792 5.798 13.797 9.385 22.64 9.385 17.673 0 32-14.327 32-32 0-0.009 0-0.018 0-0.027v0.001-96h128c17.673 0 32-14.327 32-32s-14.327-32-32-32v0zM384 704h96v-128c0-17.673 14.327-32 32-32s32 14.327 32 32v0 128h96c0.007 0 0.016 0 0.025 0 17.673 0 32 14.327 32 32 0 8.843-3.587 16.848-9.385 22.64v0l-128 128c-5.792 5.798-13.797 9.385-22.64 9.385s-16.848-3.587-22.64-9.385v0l-128-128c-5.798-5.792-9.385-13.797-9.385-22.64 0-17.673 14.327-32 32-32 0.009 0 0.018 0 0.027 0h-0.001zM950.64 470.64l-128 128c-5.792 5.798-13.797 9.385-22.64 9.385-17.673 0-32-14.327-32-32 0-0.009 0-0.018 0-0.027v0.001-96h-128c-17.673 0-32-14.327-32-32s14.327-32 32-32v0h128v-96c0-0.007 0-0.016 0-0.025 0-17.673 14.327-32 32-32 8.843 0 16.848 3.587 22.64 9.385v0l128 128c5.798 5.792 9.385 13.797 9.385 22.64s-3.587 16.848-9.385 22.64v0zM640 192h-96v128c0 17.673-14.327 32-32 32s-32-14.327-32-32v0-128h-96c-0.007 0-0.016 0-0.025 0-17.673 0-32-14.327-32-32 0-8.843 3.587-16.848 9.385-22.64v0l128-128c5.792-5.798 13.797-9.385 22.64-9.385s16.848 3.587 22.64 9.385v0l128 128c5.798 5.792 9.385 13.797 9.385 22.64 0 17.673-14.327 32-32 32-0.009 0-0.018 0-0.027 0h0.001z" />
<glyph unicode="&#xe0a6;" glyph-name="arrows-out-simple-fill" data-tags="arrows-out-simple-fill" d="M470.64 406.64c5.798-5.792 9.385-13.797 9.385-22.64s-3.587-16.848-9.385-22.64l-137.4-137.36 73.4-73.36c5.798-5.792 9.385-13.797 9.385-22.64 0-17.673-14.327-32-32-32-0.009 0-0.018 0-0.027 0h-191.999c-17.673 0-32 14.327-32 32v0 192c0 0.007 0 0.016 0 0.025 0 17.673 14.327 32 32 32 8.843 0 16.848-3.587 22.64-9.385l73.36-73.4 137.36 137.4c5.792 5.798 13.797 9.385 22.64 9.385s16.848-3.587 22.64-9.385v0zM832 800h-192c-0.007 0-0.016 0-0.025 0-17.673 0-32-14.327-32-32 0-8.843 3.587-16.848 9.385-22.64l73.4-73.36-137.4-137.36c-5.794-5.794-9.378-13.799-9.378-22.64 0-17.683 14.335-32.018 32.018-32.018 8.841 0 16.846 3.584 22.64 9.378l137.36 137.4 73.36-73.4c5.792-5.798 13.797-9.385 22.64-9.385 17.673 0 32 14.327 32 32 0 0.009 0 0.018 0 0.027v-0.001 192c0 17.673-14.327 32-32 32v0z" />
<glyph unicode="&#xe0a8;" glyph-name="article-fill" data-tags="article-fill" d="M864 800h-704c-35.346 0-64-28.654-64-64v0-576c0-35.346 28.654-64 64-64v0h704c35.346 0 64 28.654 64 64v0 576c0 35.346-28.654 64-64 64v0zM704 288h-384c-17.673 0-32 14.327-32 32s14.327 32 32 32v0h384c17.673 0 32-14.327 32-32s-14.327-32-32-32v0zM704 416h-384c-17.673 0-32 14.327-32 32s14.327 32 32 32v0h384c17.673 0 32-14.327 32-32s-14.327-32-32-32v0zM704 544h-384c-17.673 0-32 14.327-32 32s14.327 32 32 32v0h384c17.673 0 32-14.327 32-32s-14.327-32-32-32v0z" />
<glyph unicode="&#xe0aa;" glyph-name="asterisk-fill" data-tags="asterisk-fill" d="M512 864c-229.75 0-416-186.25-416-416s186.25-416 416-416c229.75 0 416 186.25 416 416v0c-0.25 229.65-186.35 415.75-415.976 416h-0.024zM749.72 347.72c9.639-5.634 16.012-15.933 16.012-27.72 0-17.673-14.327-32-32-32-0.004 0-0.009 0-0.013 0h0.001c-0.029 0-0.064 0-0.098 0-5.857 0-11.343 1.59-16.050 4.361l0.148-0.081-173.72 100.28v-200.56c0-17.673-14.327-32-32-32s-32 14.327-32 32v0 200.56l-173.72-100.28c-4.583-2.685-10.092-4.271-15.972-4.271-11.779 0-22.071 6.364-27.626 15.84l-0.082 0.151c-2.702 4.594-4.299 10.121-4.299 16.020 0 11.773 6.358 22.062 15.828 27.619l0.151 0.082 173.72 100.28-173.72 100.28c-9.636 5.637-16.006 15.934-16.006 27.72 0 17.677 14.33 32.006 32.006 32.006 5.891 0 11.41-1.592 16.151-4.368l-0.151 0.082 173.72-100.28v200.56c0 17.673 14.327 32 32 32s32-14.327 32-32v0-200.56l173.72 100.28c4.59 2.695 10.109 4.286 16 4.286 17.677 0 32.006-14.33 32.006-32.006 0-11.786-6.37-22.083-15.855-27.638l-0.151-0.082-173.72-100.28z" />
<glyph unicode="&#xe0ac;" glyph-name="at-fill" data-tags="at-fill" d="M928 448c0-2.040 0-4 0-6.080-1.36-57.040-22.52-121.92-112-121.92-92.56 0-112 69.6-112 128v160c0 0.021 0 0.046 0 0.070 0 17.673-14.327 32-32 32-0.746 0-1.486-0.026-2.219-0.076l0.099 0.005c-16.805-1.486-29.884-15.496-29.884-32.56 0-0.183 0.002-0.365 0.004-0.547v0.027-16c-33.831 30.418-78.815 49.021-128.145 49.021-106.039 0-192-85.961-192-192s85.961-192 192-192c63.464 0 119.736 30.791 154.692 78.25l0.372 0.529c4.389-7.626 8.858-14.16 13.771-20.326l-0.251 0.326c21.48-26.72 62.4-58.72 135.56-58.72 0.216-0.001 0.472-0.001 0.728-0.001 12.769 0 25.283 1.092 37.454 3.187l-1.302-0.185c0.791 0.139 1.702 0.218 2.632 0.218 8.837 0 16-7.163 16-16 0-3.034-0.845-5.872-2.312-8.289l0.040 0.071c-73.936-122.459-206.3-203.079-357.494-203.079-2.85 0-5.694 0.029-8.53 0.086l0.424-0.007c-219.12 4.4-398.84 180.56-407.32 399.56-0.204 4.866-0.32 10.576-0.32 16.313 0 229.75 186.25 416 416 416 229.706 0 415.928-186.177 416-415.866v-0.007zM384 448c0-70.692 57.308-128 128-128s128 57.308 128 128c0 70.692-57.308 128-128 128v0c-70.692 0-128-57.308-128-128v0z" />
<glyph unicode="&#xe0ae;" glyph-name="backspace-fill" data-tags="backspace-fill" d="M864 800h-589.88c-23.161-0.102-43.428-12.4-54.72-30.799l-0.16-0.281-182.68-304.44c-2.87-4.703-4.57-10.393-4.57-16.48s1.699-11.777 4.65-16.621l-0.080 0.141 182.68-304.44c11.447-18.685 31.717-30.986 54.866-31.080h589.894c35.346 0 64 28.654 64 64v0 576c0 35.346-28.654 64-64 64v0zM662.64 374.64c5.794-5.794 9.378-13.799 9.378-22.64 0-17.683-14.335-32.018-32.018-32.018-8.841 0-16.846 3.584-22.64 9.378l-73.36 73.4-73.4-73.4c-5.791-5.786-13.787-9.364-22.62-9.364-17.675 0-32.004 14.329-32.004 32.004 0 8.843 3.586 16.847 9.383 22.64l73.4 73.36-73.4 73.36c-5.797 5.793-9.384 13.797-9.384 22.64 0 17.675 14.329 32.004 32.004 32.004 8.833 0 16.829-3.578 22.62-9.364l73.4-73.4 73.36 73.4c5.794 5.794 13.799 9.378 22.64 9.378 17.683 0 32.018-14.335 32.018-32.018 0-8.841-3.584-16.846-9.378-22.64l-73.4-73.36z" />
<glyph unicode="&#xe0b0;" glyph-name="bag-fill" data-tags="bag-fill" d="M864 704h-160c0 106.039-85.961 192-192 192s-192-85.961-192-192v0h-160c-35.346 0-64-28.654-64-64v0-480c0-35.346 28.654-64 64-64v0h704c35.346 0 64 28.654 64 64v0 480c0 35.346-28.654 64-64 64v0zM384 544c0-17.673-14.327-32-32-32s-32 14.327-32 32v0 64c0 17.673 14.327 32 32 32s32-14.327 32-32v0zM512 832c70.692 0 128-57.308 128-128v0h-256c0 70.692 57.308 128 128 128v0zM704 544c0-17.673-14.327-32-32-32s-32 14.327-32 32v0 64c0 17.673 14.327 32 32 32s32-14.327 32-32v0z" />
<glyph unicode="&#xe0b2;" glyph-name="bandaids-fill" data-tags="bandaids-fill" d="M512 496c26.51 0 48-21.49 48-48s-21.49-48-48-48c-26.51 0-48 21.49-48 48v0c0 26.51 21.49 48 48 48v0zM849.12 337.12c30.136-29.135 48.846-69.926 48.846-115.086 0-88.366-71.634-160-160-160-45.16 0-85.951 18.71-115.043 48.801l-0.043 0.045-110.88 110.84-110.88-110.84c-29.135-30.136-69.926-48.846-115.086-48.846-88.366 0-160 71.634-160 160 0 45.16 18.71 85.951 48.801 115.043l0.045 0.043 110.84 110.88-110.84 110.88c-30.136 29.135-48.846 69.926-48.846 115.086 0 88.366 71.634 160 160 160 45.16 0 85.951-18.71 115.043-48.801l0.043-0.045 110.88-110.84 110.88 110.84c29.135 30.136 69.926 48.846 115.086 48.846 88.366 0 160-71.634 160-160 0-45.16-18.71-85.951-48.801-115.043l-0.045-0.043-110.84-110.88zM466.76 267l-135.76 135.76-111-110.76c-17.403-17.403-28.167-41.444-28.167-68 0-53.111 43.055-96.167 96.167-96.167 26.556 0 50.597 10.764 68 28.167v0zM647.76 448l-135.76 135.76-135.76-135.76 135.76-135.76zM803.76 604c17.423 17.393 28.202 41.438 28.202 68 0 53.064-43.017 96.082-96.082 96.082-26.502 0-50.499-10.73-67.881-28.083l0.001 0.001-110.76-111 135.76-135.76z" />
<glyph unicode="&#xe0b4;" glyph-name="bank-fill" data-tags="bank-fill" d="M992 128c0-17.673-14.327-32-32-32v0h-896c-17.673 0-32 14.327-32 32s14.327 32 32 32v0h896c17.673 0 32-14.327 32-32v0zM65.2 567.28c-0.771 2.616-1.214 5.622-1.214 8.731 0 11.477 6.042 21.543 15.119 27.19l0.136 0.079 416 256c4.768 2.976 10.558 4.74 16.76 4.74s11.992-1.764 16.895-4.819l-0.135 0.079 416-256c9.223-5.724 15.273-15.795 15.273-27.28 0-17.673-14.327-32-32-32-0.012 0-0.023 0-0.035 0h-95.998v-256h64c17.673 0 32-14.327 32-32s-14.327-32-32-32v0h-768c-17.673 0-32 14.327-32 32s14.327 32 32 32v0h64v256h-96c-0.003 0-0.007 0-0.011 0-14.568 0-26.862 9.735-30.733 23.054l-0.056 0.226zM576 320c0-17.673 14.327-32 32-32s32 14.327 32 32v0 192c0 17.673-14.327 32-32 32s-32-14.327-32-32v0zM384 320c0-17.673 14.327-32 32-32s32 14.327 32 32v0 192c0 17.673-14.327 32-32 32s-32-14.327-32-32v0z" />
<glyph unicode="&#xe0b6;" glyph-name="barbell-fill" data-tags="barbell-fill" d="M800 704v-512c0-35.346-28.654-64-64-64v0h-64c-35.346 0-64 28.654-64 64v0 224h-192v-224c0-35.346-28.654-64-64-64v0h-64c-35.346 0-64 28.654-64 64v0 512c0 35.346 28.654 64 64 64v0h64c35.346 0 64-28.654 64-64v0-224h192v224c0 35.346 28.654 64 64 64v0h64c35.346 0 64-28.654 64-64v0zM144 672h-16c-35.346 0-64-28.654-64-64v0-128h-30.92c-0.144 0.002-0.313 0.004-0.483 0.004-17.072 0-31.091-13.075-32.588-29.758l-0.009-0.126c-0.045-0.634-0.070-1.374-0.070-2.12 0-17.673 14.327-32 32-32 0.025 0 0.049 0 0.074 0h31.996v-128c0-35.346 28.654-64 64-64v0h16c8.837 0 16 7.163 16 16v0 416c0 8.837-7.163 16-16 16v0zM1024 450.12c-1.507 16.808-15.525 29.882-32.597 29.882-0.142 0-0.283-0.001-0.425-0.003h-30.979v128c0 35.346-28.654 64-64 64v0h-16c-8.837 0-16-7.163-16-16v0-416c0-8.837 7.163-16 16-16v0h16c35.346 0 64 28.654 64 64v0 128h32c0.021 0 0.046 0 0.070 0 17.673 0 32 14.327 32 32 0 0.746-0.026 1.486-0.076 2.219l0.005-0.099z" />
<glyph unicode="&#xe0b8;" glyph-name="barcode-fill" data-tags="barcode-fill" d="M896 800h-768c-17.673 0-32-14.327-32-32v0-640c0-17.673 14.327-32 32-32v0h768c17.673 0 32 14.327 32 32v0 640c0 17.673-14.327 32-32 32v0zM160 704c0 17.673 14.327 32 32 32v0h128c17.673 0 32-14.327 32-32s-14.327-32-32-32v0h-96v-96c0-17.673-14.327-32-32-32s-32 14.327-32 32v0zM320 160h-128c-17.673 0-32 14.327-32 32v0 128c0 17.673 14.327 32 32 32s32-14.327 32-32v0-96h96c17.673 0 32-14.327 32-32s-14.327-32-32-32v0zM416 352c0-17.673-14.327-32-32-32s-32 14.327-32 32v0 192c0 17.673 14.327 32 32 32s32-14.327 32-32v0zM544 352c0-17.673-14.327-32-32-32s-32 14.327-32 32v0 192c0 17.673 14.327 32 32 32s32-14.327 32-32v0zM640 320c-17.673 0-32 14.327-32 32v0 192c0 17.673 14.327 32 32 32s32-14.327 32-32v0-192c0-17.673-14.327-32-32-32v0zM864 192c0-17.673-14.327-32-32-32v0h-128c-17.673 0-32 14.327-32 32s14.327 32 32 32v0h96v96c0 17.673 14.327 32 32 32s32-14.327 32-32v0zM864 576c0-17.673-14.327-32-32-32s-32 14.327-32 32v0 96h-96c-17.673 0-32 14.327-32 32s14.327 32 32 32v0h128c17.673 0 32-14.327 32-32v0z" />
<glyph unicode="&#xe0ba;" glyph-name="battery-charging-fill" data-tags="battery-charging-fill" d="M1024 576v-256c0-17.673-14.327-32-32-32s-32 14.327-32 32v0 256c0 17.673 14.327 32 32 32s32-14.327 32-32v0zM896 640v-384c0-53.019-42.981-96-96-96v0h-672c-53.019 0-96 42.981-96 96v0 384c0 53.019 42.981 96 96 96v0h672c53.019 0 96-42.981 96-96v0zM555.24 464.84c-5.736 9.159-15.773 15.16-27.211 15.16-0.010 0-0.021 0-0.031 0h-76.238l40.88 81.68c2.131 4.172 3.38 9.1 3.38 14.32 0 17.684-14.336 32.020-32.020 32.020-12.465 0-23.266-7.122-28.556-17.519l-0.084-0.182-64-128c-2.133-4.172-3.383-9.1-3.383-14.32 0-17.673 14.327-32 32-32 0.008 0 0.016 0 0.024 0h76.239l-40.88-81.68c-2.131-4.172-3.38-9.1-3.38-14.32 0-17.684 14.336-32.020 32.020-32.020 12.465 0 23.266 7.122 28.556 17.519l0.084 0.182 64 128c2.135 4.173 3.386 9.103 3.386 14.326 0 6.233-1.782 12.049-4.864 16.968l0.078-0.134z" />
<glyph unicode="&#xe0bc;" glyph-name="battery-charging-vertical-fill" data-tags="battery-charging-vertical-fill" d="M704 832h-384c-53.019 0-96-42.981-96-96v0-672c0-53.019 42.981-96 96-96v0h384c53.019 0 96 42.981 96 96v0 672c0 53.019-42.981 96-96 96v0zM604.64 401.68l-64-128c-5.374-10.579-16.175-17.7-28.64-17.7-17.684 0-32.020 14.336-32.020 32.020 0 5.22 1.249 10.148 3.464 14.502l-0.084-0.182 40.88 81.68h-76.24c-0.007 0-0.015 0-0.023 0-17.673 0-32 14.327-32 32 0 5.22 1.25 10.148 3.467 14.502l-0.084-0.182 64 128c5.374 10.579 16.175 17.7 28.64 17.7 17.684 0 32.020-14.336 32.020-32.020 0-5.22-1.249-10.148-3.464-14.502l0.084 0.182-40.88-81.68h76.24c0.007 0 0.015 0 0.023 0 17.673 0 32-14.327 32-32 0-5.22-1.25-10.148-3.467-14.502l0.084 0.182zM352 928c0 17.673 14.327 32 32 32v0h256c17.673 0 32-14.327 32-32s-14.327-32-32-32v0h-256c-17.673 0-32 14.327-32 32v0z" />
<glyph unicode="&#xe0be;" glyph-name="battery-empty-fill" data-tags="battery-empty-fill" d="M800 736h-672c-53.019 0-96-42.981-96-96v0-384c0-53.019 42.981-96 96-96v0h672c53.019 0 96 42.981 96 96v0 384c0 53.019-42.981 96-96 96v0zM832 256c0-17.673-14.327-32-32-32v0h-672c-17.673 0-32 14.327-32 32v0 384c0 17.673 14.327 32 32 32v0h672c17.673 0 32-14.327 32-32v0zM1024 576v-256c0-17.673-14.327-32-32-32s-32 14.327-32 32v0 256c0 17.673 14.327 32 32 32s32-14.327 32-32v0z" />
<glyph unicode="&#xe0c0;" glyph-name="battery-full-fill" data-tags="battery-full-fill" d="M800 736h-672c-53.019 0-96-42.981-96-96v0-384c0-53.019 42.981-96 96-96v0h672c53.019 0 96 42.981 96 96v0 384c0 53.019-42.981 96-96 96v0zM832 256c0-17.673-14.327-32-32-32v0h-672c-17.673 0-32 14.327-32 32v0 384c0 17.673 14.327 32 32 32v0h672c17.673 0 32-14.327 32-32v0zM768 576v-256c0-17.673-14.327-32-32-32v0h-544c-17.673 0-32 14.327-32 32v0 256c0 17.673 14.327 32 32 32v0h544c17.673 0 32-14.327 32-32v0zM1024 576v-256c0-17.673-14.327-32-32-32s-32 14.327-32 32v0 256c0 17.673 14.327 32 32 32s32-14.327 32-32v0z" />
<glyph unicode="&#xe0c2;" glyph-name="battery-high-fill" data-tags="battery-high-fill" d="M608 576v-256c0-17.673-14.327-32-32-32v0h-384c-17.673 0-32 14.327-32 32v0 256c0 17.673 14.327 32 32 32v0h384c17.673 0 32-14.327 32-32v0zM896 640v-384c0-53.019-42.981-96-96-96v0h-672c-53.019 0-96 42.981-96 96v0 384c0 53.019 42.981 96 96 96v0h672c53.019 0 96-42.981 96-96v0zM832 640c0 17.673-14.327 32-32 32v0h-672c-17.673 0-32-14.327-32-32v0-384c0-17.673 14.327-32 32-32v0h672c17.673 0 32 14.327 32 32v0zM992 608c-17.673 0-32-14.327-32-32v0-256c0-17.673 14.327-32 32-32s32 14.327 32 32v0 256c0 17.673-14.327 32-32 32v0z" />
<glyph unicode="&#xe0c4;" glyph-name="battery-low-fill" data-tags="battery-low-fill" d="M288 576v-256c0-17.673-14.327-32-32-32v0h-64c-17.673 0-32 14.327-32 32v0 256c0 17.673 14.327 32 32 32v0h64c17.673 0 32-14.327 32-32v0zM896 640v-384c0-53.019-42.981-96-96-96v0h-672c-53.019 0-96 42.981-96 96v0 384c0 53.019 42.981 96 96 96v0h672c53.019 0 96-42.981 96-96v0zM832 640c0 17.673-14.327 32-32 32v0h-672c-17.673 0-32-14.327-32-32v0-384c0-17.673 14.327-32 32-32v0h672c17.673 0 32 14.327 32 32v0zM992 608c-17.673 0-32-14.327-32-32v0-256c0-17.673 14.327-32 32-32s32 14.327 32 32v0 256c0 17.673-14.327 32-32 32v0z" />
<glyph unicode="&#xe0c6;" glyph-name="battery-medium-fill" data-tags="battery-medium-fill" d="M448 576v-256c0-17.673-14.327-32-32-32v0h-224c-17.673 0-32 14.327-32 32v0 256c0 17.673 14.327 32 32 32v0h224c17.673 0 32-14.327 32-32v0zM896 640v-384c0-53.019-42.981-96-96-96v0h-672c-53.019 0-96 42.981-96 96v0 384c0 53.019 42.981 96 96 96v0h672c53.019 0 96-42.981 96-96v0zM832 640c0 17.673-14.327 32-32 32v0h-672c-17.673 0-32-14.327-32-32v0-384c0-17.673 14.327-32 32-32v0h672c17.673 0 32 14.327 32 32v0zM992 608c-17.673 0-32-14.327-32-32v0-256c0-17.673 14.327-32 32-32s32 14.327 32 32v0 256c0 17.673-14.327 32-32 32v0z" />
<glyph unicode="&#xe0c8;" glyph-name="battery-warning-fill" data-tags="battery-warning-fill" d="M800 736h-672c-53.019 0-96-42.981-96-96v0-384c0-53.019 42.981-96 96-96v0h672c53.019 0 96 42.981 96 96v0 384c0 53.019-42.981 96-96 96v0zM432 608c0 17.673 14.327 32 32 32s32-14.327 32-32v0-160c0-17.673-14.327-32-32-32s-32 14.327-32 32v0zM464 256c-26.51 0-48 21.49-48 48s21.49 48 48 48c26.51 0 48-21.49 48-48v0c0-26.51-21.49-48-48-48v0zM1024 576v-256c0-17.673-14.327-32-32-32s-32 14.327-32 32v0 256c0 17.673 14.327 32 32 32s32-14.327 32-32v0z" />
<glyph unicode="&#xe0ca;" glyph-name="battery-warning-vertical-fill" data-tags="battery-warning-vertical-fill" d="M352 928c0 17.673 14.327 32 32 32v0h256c17.673 0 32-14.327 32-32s-14.327-32-32-32v0h-256c-17.673 0-32 14.327-32 32v0zM800 736v-672c0-53.019-42.981-96-96-96v0h-384c-53.019 0-96 42.981-96 96v0 672c0 53.019 42.981 96 96 96v0h384c53.019 0 96-42.981 96-96v0zM480 416c0-17.673 14.327-32 32-32s32 14.327 32 32v0 160c0 17.673-14.327 32-32 32s-32-14.327-32-32v0zM560 272c0 26.51-21.49 48-48 48s-48-21.49-48-48c0-26.51 21.49-48 48-48v0c26.51 0 48 21.49 48 48v0z" />
<glyph unicode="&#xe0cc;" glyph-name="bed-fill" data-tags="bed-fill" d="M864 672h-736v96c0 17.673-14.327 32-32 32s-32-14.327-32-32v0-640c0-17.673 14.327-32 32-32s32 14.327 32 32v0 128h832v-128c0-17.673 14.327-32 32-32s32 14.327 32 32v0 384c0 88.366-71.634 160-160 160v0zM128 608h288v-288h-288z" />
<glyph unicode="&#xe0ce;" glyph-name="bell-fill" data-tags="bell-fill" d="M887.2 256.24c-22.2 38.24-55.2 146.44-55.2 287.76 0 176.731-143.269 320-320 320s-320-143.269-320-320v0c0-141.36-33.040-249.52-55.24-287.76-5.477-9.237-8.714-20.36-8.714-32.24 0-35.33 28.627-63.974 63.951-64h163.243c15.422-73.536 79.735-127.964 156.76-127.964s141.338 54.428 156.577 126.922l0.183 1.042h163.24c35.309 0.049 63.914 28.684 63.914 64 0 11.88-3.237 23.003-8.876 32.537l0.163-0.297zM512 96c-41.537 0.013-76.906 26.404-90.269 63.332l-0.211 0.668h180.96c-13.574-37.596-48.943-63.987-90.478-64h-0.002z" />
<glyph unicode="&#xe0d0;" glyph-name="bell-simple-fill" data-tags="bell-simple-fill" d="M672 64c0-17.673-14.327-32-32-32v0h-256c-17.673 0-32 14.327-32 32s14.327 32 32 32v0h256c17.673 0 32-14.327 32-32v0zM887.24 256.24c-22.24 38.24-55.24 146.44-55.24 287.76 0 176.731-143.269 320-320 320s-320-143.269-320-320v0c0-141.36-33.040-249.52-55.24-287.76-5.477-9.237-8.714-20.36-8.714-32.24 0-35.33 28.627-63.974 63.951-64h640.003c35.309 0.049 63.914 28.684 63.914 64 0 11.88-3.237 23.003-8.876 32.537l0.163-0.297z" />
<glyph unicode="&#xe0d2;" glyph-name="bell-simple-slash-fill" data-tags="bell-simple-slash-fill" d="M887.36 192v0c-1.305-2.218-3.681-3.684-6.399-3.684-2.234 0-4.236 0.99-5.593 2.554l-0.008 0.009-542.28 596.36c-2.502 2.811-4.030 6.535-4.030 10.617 0 5.573 2.85 10.481 7.171 13.346l0.059 0.037c49.39 33.082 110.16 52.797 175.535 52.797 1.711 0 3.418-0.013 5.122-0.040l-0.257 0.003c175.32-2.64 314.52-148.4 315.32-323.68 0.56-139.52 33.24-246.16 55.28-284 5.515-9.223 8.777-20.345 8.777-32.228 0-11.828-3.231-22.901-8.858-32.386l0.161 0.294zM640 96h-255.12c-0.073 0.001-0.16 0.001-0.247 0.001-17.079 0-31.106-13.070-32.624-29.753l-0.009-0.127c-0.045-0.634-0.070-1.374-0.070-2.12 0-17.673 14.327-32 32-32 0.025 0 0.049 0 0.074 0h254.956c0.121-0.002 0.264-0.003 0.407-0.003 17.080 0 31.107 13.071 32.624 29.755l0.009 0.127c0.045 0.634 0.070 1.374 0.070 2.12 0 17.673-14.327 32-32 32-0.025 0-0.049 0-0.074 0h0.004zM215.36 821.52c-5.889 6.617-14.429 10.764-23.938 10.764-17.673 0-32-14.327-32-32 0-8.434 3.263-16.106 8.595-21.823l-0.017 0.019 67.16-73.88c-27.302-45.925-43.44-101.254-43.44-160.353 0-0.087 0-0.173 0-0.26v0.013c0-140.36-32.6-248-54.8-286.92-5.609-9.472-8.924-20.876-8.924-33.055 0-12.428 3.452-24.050 9.449-33.959l-0.165 0.293c11.264-18.325 31.203-30.361 53.954-30.361 0.143 0 0.286 0 0.428 0.001h538.818l77.8-85.52c5.878-6.456 14.318-10.493 23.7-10.493 17.68 0 32.013 14.332 32.013 32.013 0 8.298-3.157 15.858-8.336 21.546l0.023-0.026z" />
<glyph unicode="&#xe0d4;" glyph-name="bell-slash-fill" data-tags="bell-slash-fill" d="M887.36 192v0c-1.305-2.218-3.681-3.684-6.399-3.684-2.234 0-4.236 0.99-5.593 2.554l-0.008 0.009-542.28 596.36c-2.502 2.811-4.030 6.535-4.030 10.617 0 5.573 2.85 10.481 7.171 13.346l0.059 0.037c49.39 33.082 110.16 52.797 175.535 52.797 1.711 0 3.418-0.013 5.122-0.040l-0.257 0.003c175.32-2.64 314.52-148.4 315.32-323.68 0.56-139.52 33.24-246.16 55.28-284 5.515-9.223 8.777-20.345 8.777-32.228 0-11.828-3.231-22.901-8.858-32.386l0.161 0.294zM855.68 117.52c5.155-5.662 8.313-13.222 8.313-21.52 0-17.68-14.332-32.013-32.013-32.013-9.382 0-17.822 4.036-23.677 10.467l-0.023 0.026-77.8 85.52h-61.84c-15.305-73.681-79.689-128.259-156.82-128.259s-141.515 54.578-156.639 127.221l-0.181 1.038h-163.36c-0.121-0.001-0.263-0.001-0.406-0.001-22.75 0-42.689 12.036-53.797 30.088l-0.157 0.273c-5.832 9.616-9.284 21.237-9.284 33.665 0 12.179 3.315 23.583 9.091 33.36l-0.167-0.306c22.2 38.92 54.8 146.56 54.8 286.92 0 0.073 0 0.16 0 0.247 0 59.098 16.137 114.428 44.246 161.821l-0.806-1.469-67.16 73.88c-5.315 5.698-8.578 13.37-8.578 21.804 0 17.673 14.327 32 32 32 9.509 0 18.049-4.147 23.91-10.732l0.028-0.032zM602.36 160h-181.080c13.553-37.65 48.959-64.086 90.54-64.086s76.987 26.436 90.329 63.417l0.211 0.669z" />
<glyph unicode="&#xe0d6;" glyph-name="bicycle-fill" data-tags="bicycle-fill" d="M217.84 301.16l111.48 152.84c33.692-34.558 54.473-81.842 54.473-133.979 0-106.039-85.961-192-192-192s-192 85.961-192 192c0 106.039 85.961 192 192 192 31.292 0 60.836-7.486 86.938-20.764l-1.091 0.504-111.48-152.92c-4.266-5.387-6.844-12.282-6.844-19.778 0-17.673 14.327-32 32-32 10.993 0 20.692 5.544 26.453 13.988l0.071 0.11zM832 512c-0.025 0-0.054 0-0.084 0-24.307 0-47.554-4.535-68.943-12.804l1.306 0.444 95.36-163.64c3.362-4.985 5.366-11.127 5.366-17.737 0-17.673-14.327-32-32-32-12.476 0-23.284 7.139-28.562 17.555l-0.084 0.182-95.32 163.44c-42.305-35.463-69.014-88.333-69.014-147.44 0-106.039 85.961-192 192-192s192 85.961 192 192c0 106.039-85.961 192-192 192-0.009 0-0.018 0-0.027 0h0.001zM663.72 672h104.28c17.673 0 32-14.327 32-32v0c0-17.673 14.327-32 32-32s32 14.327 32 32v0c0 53.019-42.981 96-96 96v0h-160c-17.642-0.041-31.927-14.352-31.927-32 0-5.891 1.592-11.41 4.369-16.151l-0.082 0.151 46.6-80h-229.92l-65.4 112c-5.624 9.612-15.886 15.972-27.636 16h-112.004c-17.673 0-32-14.327-32-32s14.327-32 32-32v0h93.64l54.84-94.040-62.84-86.2c19.954-10.088 37.018-22.708 51.64-37.718l0.040-0.042 46.36 63.6 124.68-213.6c5.362-10.598 16.17-17.737 28.646-17.737 17.673 0 32 14.327 32 32 0 6.61-2.004 12.752-5.438 17.852l0.072-0.114-121.28 208h229.92l44.76-76.68c15.756 13.249 34.041 24.165 53.927 31.872l1.313 0.448z" />
<glyph unicode="&#xe0da;" glyph-name="bluetooth-fill" data-tags="bluetooth-fill" d="M800 256c0-10.433-4.993-19.7-12.72-25.542l-0.080-0.058-256-192c-5.281-3.996-11.96-6.4-19.2-6.4v0c-17.673 0-32 14.327-32 32v0 320l-204.8-153.6c-5.281-3.996-11.96-6.4-19.2-6.4-17.673 0-32 14.327-32 32 0 10.433 4.993 19.7 12.72 25.542l0.080 0.058 221.88 166.4-221.88 166.4c-7.807 5.9-12.8 15.167-12.8 25.6 0 17.673 14.327 32 32 32 7.24 0 13.919-2.404 19.28-6.458l-0.080 0.058 204.8-153.6v320c0 17.673 14.327 32 32 32 7.24 0 13.919-2.404 19.28-6.458l-0.080 0.058 256-192c7.807-5.9 12.8-15.167 12.8-25.6s-4.993-19.7-12.72-25.542l-0.080-0.058-221.88-166.4 221.88-166.4c7.807-5.9 12.8-15.167 12.8-25.6v0z" />
<glyph unicode="&#xe0dc;" glyph-name="bluetooth-connected-fill" data-tags="bluetooth-connected-fill" d="M800 256c0-10.433-4.993-19.7-12.72-25.542l-0.080-0.058-256-192c-5.281-3.996-11.96-6.4-19.2-6.4v0c-17.673 0-32 14.327-32 32v0 320l-204.8-153.6c-5.281-3.996-11.96-6.4-19.2-6.4-17.673 0-32 14.327-32 32 0 10.433 4.993 19.7 12.72 25.542l0.080 0.058 221.88 166.4-221.88 166.4c-7.807 5.9-12.8 15.167-12.8 25.6 0 17.673 14.327 32 32 32 7.24 0 13.919-2.404 19.28-6.458l-0.080 0.058 204.8-153.6v320c0 17.673 14.327 32 32 32 7.24 0 13.919-2.404 19.28-6.458l-0.080 0.058 256-192c7.807-5.9 12.8-15.167 12.8-25.6s-4.993-19.7-12.72-25.542l-0.080-0.058-221.88-166.4 221.88-166.4c7.807-5.9 12.8-15.167 12.8-25.6v0zM288 448c0 26.51-21.49 48-48 48s-48-21.49-48-48c0-26.51 21.49-48 48-48v0c26.51 0 48 21.49 48 48v0zM816 496c-26.51 0-48-21.49-48-48s21.49-48 48-48c26.51 0 48 21.49 48 48v0c0 26.51-21.49 48-48 48v0z" />
<glyph unicode="&#xe0de;" glyph-name="bluetooth-slash-fill" data-tags="bluetooth-slash-fill" d="M885.52 72.32c-5.661-5.158-13.221-8.317-21.52-8.317-9.373 0-17.805 4.030-23.657 10.451l-0.023 0.025-105.8 116.4-203.32-152.48c-5.278-3.988-11.951-6.388-19.184-6.388-6.044 0-11.697 1.676-16.52 4.588l0.143-0.080c-9.454 5.951-15.645 16.331-15.645 28.157 0 0.198 0.002 0.396 0.005 0.593v-0.030 318.76l-204.8-153.6c-5.28-3.993-11.957-6.396-19.194-6.396-10.343 0-19.54 4.907-25.39 12.52l-0.056 0.076c-3.834 5.326-6.131 11.981-6.131 19.172 0 10.84 5.221 20.461 13.285 26.486l0.087 0.062 245.88 184.44-283.36 311.72c-5.004 5.621-8.062 13.072-8.062 21.236 0 17.673 14.327 32 32 32 9.239 0 17.563-3.915 23.405-10.177l0.017-0.019 640-704c5.158-5.661 8.317-13.221 8.317-21.52 0-9.373-4.030-17.805-10.451-23.657l-0.025-0.023zM620 507.12c2.938-3.224 7.154-5.239 11.841-5.239 3.62 0 6.959 1.202 9.639 3.228l-0.040-0.029 145.76 109.32c7.807 5.9 12.8 15.167 12.8 25.6s-4.993 19.7-12.72 25.542l-0.080 0.058-256 192c-5.296 4.031-12.003 6.457-19.276 6.457-7.926 0-15.179-2.882-20.768-7.654l0.044 0.037c-6.886-6.078-11.206-14.924-11.206-24.779 0-0.218 0.002-0.436 0.006-0.653v0.033-163.76c-0.001-0.052-0.001-0.114-0.001-0.176 0-4.066 1.517-7.778 4.016-10.601l-0.015 0.017z" />
<glyph unicode="&#xe0e0;" glyph-name="bluetooth-x-fill" data-tags="bluetooth-x-fill" d="M736 256c0-10.433-4.993-19.7-12.72-25.542l-0.080-0.058-256-192c-5.281-3.996-11.96-6.4-19.2-6.4v0c-0.026 0-0.057 0-0.087 0-6.043 0-11.69 1.696-16.49 4.639l0.138-0.079c-9.432 5.964-15.605 16.338-15.605 28.154 0 0.199 0.002 0.398 0.005 0.596v-0.030 318.72l-204.92-153.6c-5.28-3.993-11.957-6.396-19.194-6.396-10.343 0-19.54 4.907-25.39 12.52l-0.056 0.076c-3.842 5.33-6.145 11.992-6.145 19.192 0 10.829 5.21 20.441 13.259 26.467l0.086 0.062 221.040 165.68-221.12 165.72c-8.186 6.028-13.438 15.628-13.438 26.455 0 6.393 1.831 12.359 4.998 17.401l-0.080-0.136c5.804 8.76 15.618 14.458 26.763 14.458 7.274 0 13.981-2.427 19.355-6.515l-0.079 0.057 204.96-153.44v319.040c-0.003 0.164-0.005 0.356-0.005 0.55 0 9.888 4.37 18.756 11.285 24.777l0.040 0.034c5.549 4.749 12.811 7.638 20.749 7.638 7.263 0 13.96-2.419 19.33-6.496l-0.079 0.058 134.48-100.8c3.788-2.955 6.201-7.52 6.201-12.648 0-0.053 0-0.107-0.001-0.16v0.008-208c0-5.217-2.496-9.85-6.36-12.771l-0.040-0.029-100.24-75.2 222-166.4c7.715-5.905 12.64-15.117 12.64-25.479 0-0.042 0-0.085 0-0.127v0.007zM949.88 567.48l-72.4 72.52 72.44 72.44c6.168 5.978 9.997 14.338 9.997 23.593 0 8.423-3.171 16.105-8.384 21.917l0.027-0.031c-5.852 6.222-14.138 10.096-23.329 10.096-8.838 0-16.84-3.583-22.631-9.376l-73.4-73.4-72.48 72.44c-5.993 6.19-14.379 10.033-23.663 10.033-7.407 0-14.242-2.446-19.742-6.574l0.085 0.061c-7.565-5.91-12.383-15.033-12.383-25.282 0-8.882 3.618-16.918 9.461-22.716l0.002-0.002 73.44-73.2-72.6-72.52c-6.122-5.965-9.92-14.29-9.92-23.502 0-7.966 2.84-15.269 7.563-20.952l-0.043 0.054c5.901-6.806 14.561-11.086 24.22-11.086 8.833 0 16.83 3.579 22.621 9.366l73.44 73.4 73.4-73.4c5.792-5.8 13.798-9.387 22.642-9.387 9.669 0 18.336 4.288 24.204 11.067l0.034 0.040c4.66 5.628 7.487 12.92 7.487 20.874 0 9.221-3.8 17.555-9.92 23.519l-0.007 0.007z" />
<glyph unicode="&#xe0e2;" glyph-name="book-fill" data-tags="book-fill" d="M864 832v-640c0-17.673-14.327-32-32-32v0h-544c-35.346 0-64-28.654-64-64v0h544c17.673 0 32-14.327 32-32s-14.327-32-32-32v0h-576c-17.673 0-32 14.327-32 32v0 672c0 70.692 57.308 128 128 128v0h544c17.673 0 32-14.327 32-32v0z" />
<glyph unicode="&#xe0e4;" glyph-name="book-bookmark-fill" data-tags="book-bookmark-fill" d="M832 864h-544c-70.692 0-128-57.308-128-128v0-672c0-17.673 14.327-32 32-32v0h576c17.673 0 32 14.327 32 32s-14.327 32-32 32v0h-544c0 35.346 28.654 64 64 64v0h544c17.673 0 32 14.327 32 32v0 640c0 17.673-14.327 32-32 32v0zM736 480l-102.44 76.8c-2.641 1.998-5.98 3.2-9.6 3.2s-6.959-1.202-9.64-3.229l0.040 0.029-102.36-76.8v320h224z" />
<glyph unicode="&#xe0e6;" glyph-name="book-open-fill" data-tags="book-open-fill" d="M960 736v-576c0-17.673-14.327-32-32-32v0h-288c0 0 0 0 0 0-52.935 0-95.863-42.844-96-95.747v-0.013c0.004-0.184 0.006-0.401 0.006-0.619 0-13.459-8.414-24.953-20.27-29.508l-0.216-0.073c-3.417-1.358-7.377-2.146-11.52-2.146-17.673 0-32 14.327-32 32 0 0.037 0 0.074 0 0.111v-0.006c0 53.019-42.981 96-96 96v0h-288c-17.673 0-32 14.327-32 32v0 576c0 17.673 14.327 32 32 32v0h256c70.692 0 128-57.308 128-128v0-350.92c-0.002-0.131-0.003-0.285-0.003-0.44 0-17.064 13.078-31.073 29.758-32.551l0.125-0.009c0.634-0.045 1.374-0.070 2.12-0.070 17.673 0 32 14.327 32 32 0 0.025 0 0.049 0 0.074v-0.004 351.92c0 70.692 57.308 128 128 128v0h256c17.673 0 32-14.327 32-32v0z" />
<glyph unicode="&#xe0e8;" glyph-name="bookmark-fill" data-tags="bookmark-fill" d="M736 832h-448c-35.346 0-64-28.654-64-64v0-704c0.009-17.666 14.332-31.984 32-31.984 6.285 0 12.147 1.812 17.091 4.942l-0.131-0.078 239.040 149.4 239.080-149.4c4.804-3.037 10.652-4.839 16.92-4.839 17.659 0 31.977 14.304 32 31.957v704.002c0 35.346-28.654 64-64 64v0zM528.92 251.12c-4.813 3.052-10.675 4.864-16.96 4.864s-12.146-1.812-17.091-4.942l0.131 0.078-207-129.4v116.56l224 140 224-140v-116.56z" />
<glyph unicode="&#xe0ea;" glyph-name="bookmark-simple-fill" data-tags="bookmark-simple-fill" d="M736 832h-448c-35.346 0-64-28.654-64-64v0-704c0.009-17.666 14.332-31.984 32-31.984 6.285 0 12.147 1.812 17.091 4.942l-0.131-0.078 239.040 149.4 239.080-149.4c4.804-3.037 10.652-4.839 16.92-4.839 17.659 0 31.977 14.304 32 31.957v704.002c0 35.346-28.654 64-64 64v0z" />
<glyph unicode="&#xe0ec;" glyph-name="bookmarks-fill" data-tags="bookmarks-fill" d="M768 864h-384c-35.346 0-64-28.654-64-64v0-64h-64c-35.346 0-64-28.654-64-64v0-608c0 0 0-0.001 0-0.001 0-17.673 14.327-32 32-32 6.979 0 13.435 2.234 18.695 6.026l-0.095-0.065 205.4 146.72 205.44-146.72c5.156-3.709 11.599-5.932 18.56-5.932 17.663 0 31.984 14.311 32 31.971v157.242l77.4-55.28c5.165-3.727 11.621-5.961 18.6-5.961 17.673 0 32 14.327 32 32 0 0 0 0.001 0 0.001v0 608c0 35.346-28.654 64-64 64v0zM768 254.16l-64 45.84v372c0 35.346-28.654 64-64 64v0h-256v64h384z" />
<glyph unicode="&#xe0ee;" glyph-name="briefcase-fill" data-tags="briefcase-fill" d="M608 512c0-17.673-14.327-32-32-32v0h-128c-17.673 0-32 14.327-32 32s14.327 32 32 32v0h128c17.673 0 32-14.327 32-32v0zM928 672v-512c0-35.346-28.654-64-64-64v0h-704c-35.346 0-64 28.654-64 64v0 512c0 35.346 28.654 64 64 64v0h160v32c0 53.019 42.981 96 96 96v0h192c53.019 0 96-42.981 96-96v0-32h160c35.346 0 64-28.654 64-64v0zM384 736h256v32c0 17.673-14.327 32-32 32v0h-192c-17.673 0-32-14.327-32-32v0zM864 505.56v166.44h-704v-166.44c101.637-56.377 222.877-89.56 351.868-89.56 0.047 0 0.093 0 0.14 0h-0.008c0.040 0 0.086 0 0.132 0 128.992 0 250.233 33.183 355.653 91.479l-3.784-1.919z" />
<glyph unicode="&#xe0f2;" glyph-name="broadcast-fill" data-tags="broadcast-fill" d="M672 448c0-88.366-71.634-160-160-160s-160 71.634-160 160c0 88.366 71.634 160 160 160v0c88.366 0 160-71.634 160-160v0zM832 448c0 0.116 0 0.253 0 0.391 0 81.972-30.922 156.721-81.738 213.22l0.258-0.291c-5.9 6.779-14.542 11.039-24.179 11.039-17.673 0-32-14.327-32-32 0-8.393 3.232-16.032 8.518-21.74l-0.019 0.021c40.45-45.080 65.183-104.982 65.183-170.66s-24.733-125.58-65.394-170.899l0.211 0.239c-4.859-5.581-7.821-12.925-7.821-20.961 0-17.673 14.327-32 32-32 9.28 0 17.637 3.95 23.482 10.26l0.019 0.021c50.559 56.235 81.48 131.010 81.48 213.006 0 0.125 0 0.249 0 0.374v-0.019zM321.16 618.64c5.268 5.687 8.499 13.326 8.499 21.719 0 17.673-14.327 32-32 32-9.637 0-18.28-4.26-24.146-11l-0.033-0.039c-50.618-56.332-81.574-131.221-81.574-213.34s30.956-157.008 81.835-213.635l-0.26 0.295c5.864-6.331 14.221-10.281 23.501-10.281 17.673 0 32 14.327 32 32 0 8.036-2.962 15.38-7.854 21l0.033-0.039c-40.49 45.063-65.251 104.97-65.251 170.66s24.761 125.597 65.46 170.896l-0.208-0.236zM954.28 634.64c-24.757 57.936-58.29 107.47-99.509 149.43l0.069-0.070c-5.855 6.248-14.158 10.141-23.371 10.141-17.673 0-32-14.327-32-32 0-8.994 3.71-17.121 9.683-22.934l0.007-0.007c73.579-74.925 118.998-177.718 118.998-291.12s-45.42-216.196-119.060-291.183l0.061 0.063c-5.692-5.781-9.207-13.72-9.207-22.48 0-17.699 14.348-32.047 32.047-32.047 8.939 0 17.023 3.66 22.836 9.563l0.004 0.004c84.832 86.578 137.184 205.26 137.184 336.168 0 67.407-13.881 131.573-38.94 189.794l1.196-3.122zM128.68 286.080c-20.762 47.783-32.839 103.44-32.839 161.919 0 113.402 45.42 216.196 119.060 291.183l-0.061-0.062c5.675 5.774 9.179 13.698 9.179 22.44 0 17.684-14.335 32.019-32.019 32.019-8.941 0-17.027-3.665-22.836-9.574l-0.004-0.005c-84.967-86.455-137.42-205.102-137.42-336s52.453-249.545 137.488-336.069l-0.068 0.069c5.855-6.248 14.158-10.141 23.371-10.141 17.673 0 32 14.327 32 32 0 8.994-3.71 17.121-9.683 22.934l-0.007 0.007c-35.636 36.263-64.687 79.135-85.128 126.588l-1.032 2.692z" />
<glyph unicode="&#xe0f4;" glyph-name="browser-fill" data-tags="browser-fill" d="M864 800h-704c-35.346 0-64-28.654-64-64v0-576c0-35.346 28.654-64 64-64v0h704c35.346 0 64 28.654 64 64v0 576c0 35.346-28.654 64-64 64v0zM864 736v-128h-704v128z" />
<glyph unicode="&#xe0f6;" glyph-name="browsers-fill" data-tags="browsers-fill" d="M864 800h-576c-35.346 0-64-28.654-64-64v0-64h-64c-35.346 0-64-28.654-64-64v0-448c0-35.346 28.654-64 64-64v0h576c35.346 0 64 28.654 64 64v0 64h64c35.346 0 64 28.654 64 64v0 448c0 35.346-28.654 64-64 64v0zM736 608v-64h-576v64zM864 288h-64v320c0 35.346-28.654 64-64 64v0h-448v64h576z" />
<glyph unicode="&#xe0f8;" glyph-name="cards-fill" data-tags="cards-fill" d="M800 608v-448c0-35.346-28.654-64-64-64v0h-576c-35.346 0-64 28.654-64 64v0 448c0 35.346 28.654 64 64 64v0h576c35.346 0 64-28.654 64-64v0zM864 800h-608c-17.673 0-32-14.327-32-32s14.327-32 32-32v0h608v-480c0-17.673 14.327-32 32-32s32 14.327 32 32v0 480c0 35.346-28.654 64-64 64v0z" />
<glyph unicode="&#xe0fe;" glyph-name="building-apartment-fill" data-tags="building-apartment-fill" d="M960 128h-32v544c0 17.673-14.327 32-32 32v0h-160v96c0 17.673-14.327 32-32 32v0h-384c-17.673 0-32-14.327-32-32v0-224h-160c-17.673 0-32-14.327-32-32v0-416h-32c-17.673 0-32-14.327-32-32s14.327-32 32-32v0h896c17.673 0 32 14.327 32 32s-14.327 32-32 32v0zM320 256h-64c-17.673 0-32 14.327-32 32s14.327 32 32 32v0h64c17.673 0 32-14.327 32-32s-14.327-32-32-32v0zM320 384h-64c-17.673 0-32 14.327-32 32s14.327 32 32 32v0h64c17.673 0 32-14.327 32-32s-14.327-32-32-32v0zM576 128h-128v160h128zM544 384h-64c-17.673 0-32 14.327-32 32s14.327 32 32 32v0h64c17.673 0 32-14.327 32-32s-14.327-32-32-32v0zM544 512h-64c-17.673 0-32 14.327-32 32s14.327 32 32 32v0h64c17.673 0 32-14.327 32-32s-14.327-32-32-32v0zM544 640h-64c-17.673 0-32 14.327-32 32s14.327 32 32 32v0h64c17.673 0 32-14.327 32-32s-14.327-32-32-32v0zM768 256h-64c-17.673 0-32 14.327-32 32s14.327 32 32 32v0h64c17.673 0 32-14.327 32-32s-14.327-32-32-32v0zM768 384h-64c-17.673 0-32 14.327-32 32s14.327 32 32 32v0h64c17.673 0 32-14.327 32-32s-14.327-32-32-32v0zM768 512h-64c-17.673 0-32 14.327-32 32s14.327 32 32 32v0h64c17.673 0 32-14.327 32-32s-14.327-32-32-32v0z" />
<glyph unicode="&#xe0ff;" glyph-name="building-office-fill" data-tags="building-office-fill" d="M992 128h-64v448c17.673 0 32 14.327 32 32s-14.327 32-32 32v0h-192v128c17.673 0 32 14.327 32 32s-14.327 32-32 32v0h-576c-17.673 0-32-14.327-32-32s14.327-32 32-32v0-640h-64c-17.673 0-32-14.327-32-32s14.327-32 32-32v0h896c17.673 0 32 14.327 32 32s-14.327 32-32 32v0zM320 672h64c17.673 0 32-14.327 32-32s-14.327-32-32-32v0h-64c-17.673 0-32 14.327-32 32s14.327 32 32 32v0zM288 480c0 17.673 14.327 32 32 32v0h64c17.673 0 32-14.327 32-32s-14.327-32-32-32v0h-64c-17.673 0-32 14.327-32 32v0zM544 128h-192v192h192zM576 448h-64c-17.673 0-32 14.327-32 32s14.327 32 32 32v0h64c17.673 0 32-14.327 32-32s-14.327-32-32-32v0zM576 608h-64c-17.673 0-32 14.327-32 32s14.327 32 32 32v0h64c17.673 0 32-14.327 32-32s-14.327-32-32-32v0zM864 128h-128v448h128z" />
<glyph unicode="&#xe100;" glyph-name="building-fill" data-tags="building-fill" d="M928 64h-96v768h32c17.673 0 32 14.327 32 32s-14.327 32-32 32v0h-704c-17.673 0-32-14.327-32-32s14.327-32 32-32v0h32v-768h-96c-17.673 0-32-14.327-32-32s14.327-32 32-32v0h832c17.673 0 32 14.327 32 32s-14.327 32-32 32v0zM352 736h96c17.673 0 32-14.327 32-32s-14.327-32-32-32v0h-96c-17.673 0-32 14.327-32 32s14.327 32 32 32v0zM352 576h96c17.673 0 32-14.327 32-32s-14.327-32-32-32v0h-96c-17.673 0-32 14.327-32 32s14.327 32 32 32v0zM320 384c0 17.673 14.327 32 32 32v0h96c17.673 0 32-14.327 32-32s-14.327-32-32-32v0h-96c-17.673 0-32 14.327-32 32v0zM608 64h-192v160h192zM672 352h-96c-17.673 0-32 14.327-32 32s14.327 32 32 32v0h96c17.673 0 32-14.327 32-32s-14.327-32-32-32v0zM672 512h-96c-17.673 0-32 14.327-32 32s14.327 32 32 32v0h96c17.673 0 32-14.327 32-32s-14.327-32-32-32v0zM672 672h-96c-17.673 0-32 14.327-32 32s14.327 32 32 32v0h96c17.673 0 32-14.327 32-32s-14.327-32-32-32v0z" />
<glyph unicode="&#xe102;" glyph-name="buildings-fill" data-tags="buildings-fill" d="M958.92 128h-62.92v448c0 35.346-28.654 64-64 64v0h-176c-8.837 0-16-7.163-16-16v0-496h-64v702.36c0.002 0.208 0.004 0.453 0.004 0.698 0 20.695-9.566 39.157-24.517 51.203l-0.126 0.099c-10.738 8.435-24.45 13.527-39.351 13.527-13.243 0-25.547-4.022-35.756-10.912l0.227 0.144-320-213.12c-17.272-11.643-28.48-31.132-28.48-53.238 0-0.043 0-0.085 0-0.128v0.007-490.64h-62.92c-0.144 0.002-0.313 0.004-0.483 0.004-17.072 0-31.091-13.075-32.588-29.758l-0.009-0.126c-0.045-0.634-0.070-1.374-0.070-2.12 0-17.673 14.327-32 32-32 0.025 0 0.049 0 0.074 0h895.996c0.021 0 0.046 0 0.070 0 17.673 0 32 14.327 32 32 0 0.746-0.026 1.486-0.076 2.219l0.005-0.099c-1.506 16.809-15.525 29.884-32.597 29.884-0.17 0-0.339-0.001-0.509-0.004h0.026zM304 224c0-0.021 0-0.046 0-0.070 0-17.673-14.327-32-32-32-0.746 0-1.486 0.026-2.219 0.076l0.099-0.005c-16.809 1.506-29.884 15.524-29.884 32.597 0 0.184 0.002 0.368 0.005 0.551v-0.028 61.8c-0.002 0.133-0.003 0.29-0.003 0.447 0 17.080 13.071 31.107 29.756 32.624l0.127 0.009c0.634 0.045 1.374 0.070 2.12 0.070 17.673 0 32-14.327 32-32 0-0.025 0-0.049 0-0.074v0.004zM304 448c0-0.021 0-0.046 0-0.070 0-17.673-14.327-32-32-32-0.746 0-1.486 0.026-2.219 0.076l0.099-0.005c-16.812 1.526-29.884 15.553-29.884 32.633 0 0.171 0.001 0.342 0.004 0.512v-0.026 61.8c-0.002 0.133-0.003 0.29-0.003 0.447 0 17.080 13.071 31.107 29.756 32.624l0.127 0.009c0.634 0.045 1.374 0.070 2.12 0.070 17.673 0 32-14.327 32-32 0-0.025 0-0.049 0-0.074v0.004zM464 224c0-0.021 0-0.046 0-0.070 0-17.673-14.327-32-32-32-0.746 0-1.486 0.026-2.219 0.076l0.099-0.005c-16.808 1.506-29.883 15.525-29.883 32.597 0 0.156 0.001 0.311 0.003 0.467v-0.024 61.88c-0.002 0.121-0.003 0.264-0.003 0.407 0 17.080 13.071 31.107 29.755 32.624l0.127 0.009c0.634 0.045 1.374 0.070 2.12 0.070 17.673 0 32-14.327 32-32 0-0.025 0-0.049 0-0.074v0.004zM464 448c0-0.021 0-0.046 0-0.070 0-17.673-14.327-32-32-32-0.746 0-1.486 0.026-2.219 0.076l0.099-0.005c-16.812 1.527-29.883 15.554-29.883 32.633 0 0.143 0.001 0.286 0.003 0.428v-0.022 61.88c-0.002 0.121-0.003 0.264-0.003 0.407 0 17.080 13.071 31.107 29.755 32.624l0.127 0.009c0.634 0.045 1.374 0.070 2.12 0.070 17.673 0 32-14.327 32-32 0-0.025 0-0.049 0-0.074v0.004z" />
<glyph unicode="&#xe106;" glyph-name="bus-fill" data-tags="bus-fill" d="M992 640v-96c0-17.673-14.327-32-32-32s-32 14.327-32 32v0 96c0 17.673 14.327 32 32 32s32-14.327 32-32v0zM64 672c-17.673 0-32-14.327-32-32v0-96c0-17.673 14.327-32 32-32s32 14.327 32 32v0 96c0 17.673-14.327 32-32 32v0zM864 704v-576c0-35.346-28.654-64-64-64v0h-64c-35.346 0-64 28.654-64 64v0 32h-320v-32c0-35.346-28.654-64-64-64v0h-64c-35.346 0-64 28.654-64 64v0 576c0 70.692 57.308 128 128 128v0h448c70.692 0 128-57.308 128-128v0zM416 368c0 26.51-21.49 48-48 48s-48-21.49-48-48c0-26.51 21.49-48 48-48v0c26.51 0 48 21.49 48 48v0zM704 368c0 26.51-21.49 48-48 48s-48-21.49-48-48c0-26.51 21.49-48 48-48v0c26.51 0 48 21.49 48 48v0zM800 672h-576v-160h576z" />
<glyph unicode="&#xe108;" glyph-name="calendar-fill" data-tags="calendar-fill" d="M832 832h-96v32c0 17.673-14.327 32-32 32s-32-14.327-32-32v0-32h-320v32c0 17.673-14.327 32-32 32s-32-14.327-32-32v0-32h-96c-35.346 0-64-28.654-64-64v0-640c0-35.346 28.654-64 64-64v0h640c35.346 0 64 28.654 64 64v0 640c0 35.346-28.654 64-64 64v0zM448 224c0-17.673-14.327-32-32-32s-32 14.327-32 32v0 204.24l-17.68-8.88c-4.172-2.131-9.1-3.38-14.32-3.38-17.684 0-32.020 14.336-32.020 32.020 0 12.465 7.122 23.266 17.519 28.556l0.182 0.084 64 32c4.172 2.133 9.1 3.383 14.32 3.383 17.673 0 32-14.327 32-32 0-0.008 0-0.016 0-0.024v0.001zM672 256c17.673 0 32-14.327 32-32s-14.327-32-32-32v0h-128c-17.673 0-32 14.327-32 32 0 7.24 2.404 13.919 6.458 19.28l-0.058-0.080 115.12 153.48c4.004 5.285 6.414 11.971 6.414 19.219 0 17.673-14.327 32-32 32-11.741 0-22.005-6.323-27.573-15.75l-0.081-0.149c-5.532-10.040-16.045-16.73-28.121-16.73-17.673 0-32 14.327-32 32 0 6.19 1.757 11.969 4.8 16.866l-0.079-0.136c16.912 28.88 47.787 47.968 83.12 47.968 53.008 0 95.982-42.963 96-95.966v-0.002c0-0.092 0.001-0.2 0.001-0.309 0-21.709-7.278-41.717-19.528-57.719l0.168 0.228-76.64-102.2zM192 640v128h96v-32c0-17.673 14.327-32 32-32s32 14.327 32 32v0 32h320v-32c0-17.673 14.327-32 32-32s32 14.327 32 32v0 32h96v-128z" />
<glyph unicode="&#xe10a;" glyph-name="calendar-blank-fill" data-tags="calendar-blank-fill" d="M832 832h-96v32c0 17.673-14.327 32-32 32s-32-14.327-32-32v0-32h-320v32c0 17.673-14.327 32-32 32s-32-14.327-32-32v0-32h-96c-35.346 0-64-28.654-64-64v0-640c0-35.346 28.654-64 64-64v0h640c35.346 0 64 28.654 64 64v0 640c0 35.346-28.654 64-64 64v0zM832 640h-640v128h96v-32c0-17.673 14.327-32 32-32s32 14.327 32 32v0 32h320v-32c0-17.673 14.327-32 32-32s32 14.327 32 32v0 32h96z" />
<glyph unicode="&#xe10c;" glyph-name="calendar-x-fill" data-tags="calendar-x-fill" d="M832 832h-96v32c0 17.673-14.327 32-32 32s-32-14.327-32-32v0-32h-320v32c0 17.673-14.327 32-32 32s-32-14.327-32-32v0-32h-96c-35.346 0-64-28.654-64-64v0-640c0-35.346 28.654-64 64-64v0h640c35.346 0 64 28.654 64 64v0 640c0 35.346-28.654 64-64 64v0zM630.64 278.64c5.794-5.794 9.378-13.799 9.378-22.64 0-17.683-14.335-32.018-32.018-32.018-8.841 0-16.846 3.584-22.64 9.378l-73.36 73.4-73.36-73.4c-5.794-5.794-13.799-9.378-22.64-9.378-17.683 0-32.018 14.335-32.018 32.018 0 8.841 3.584 16.846 9.378 22.64l73.4 73.36-73.4 73.36c-5.794 5.794-9.378 13.799-9.378 22.64 0 17.683 14.335 32.018 32.018 32.018 8.841 0 16.846-3.584 22.64-9.378l73.36-73.4 73.36 73.4c5.794 5.794 13.799 9.378 22.64 9.378 17.683 0 32.018-14.335 32.018-32.018 0-8.841-3.584-16.846-9.378-22.64l-73.4-73.36zM832 640h-640v128h96v-32c0-17.673 14.327-32 32-32s32 14.327 32 32v0 32h320v-32c0-17.673 14.327-32 32-32s32 14.327 32 32v0 32h96z" />
<glyph unicode="&#xe10e;" glyph-name="camera-fill" data-tags="camera-fill" d="M832 736h-110.88l-54.52 81.76c-5.818 8.631-15.554 14.233-26.599 14.24h-256.001c-11.046-0.007-20.782-5.609-26.528-14.126l-0.072-0.114-54.56-81.76h-110.84c-53.019 0-96-42.981-96-96v0-448c0-53.019 42.981-96 96-96v0h640c53.019 0 96 42.981 96 96v0 448c0 53.019-42.981 96-96 96v0zM656 432c0-79.529-64.471-144-144-144s-144 64.471-144 144c0 79.529 64.471 144 144 144v0c79.529 0 144-64.471 144-144v0z" />
<glyph unicode="&#xe110;" glyph-name="camera-slash-fill" data-tags="camera-slash-fill" d="M928 640v-448c-0.007-6.584-0.662-13.011-1.904-19.226l0.104 0.626c-1.362-7.57-7.899-13.238-15.76-13.238-4.687 0-8.902 2.015-11.829 5.226l-0.011 0.013-554.6 610.28c-2.583 2.831-4.165 6.615-4.165 10.768 0 3.307 1.003 6.379 2.722 8.929l-0.036-0.057 14.96 22.44c5.803 8.609 15.504 14.205 26.515 14.24h256.005c0.006 0 0.013 0 0.021 0 11.053 0 20.798-5.604 26.547-14.126l0.072-0.114 54.48-81.76h110.88c53.019 0 96-42.981 96-96v0zM855.68 117.52c5.315-5.698 8.578-13.37 8.578-21.804 0-17.673-14.327-32-32-32-9.509 0-18.049 4.147-23.91 10.732l-0.028 0.032-19.56 21.52h-596.76c-53.019 0-96 42.981-96 96v0 448c0 53.019 42.981 96 96 96v0h14.92l-38.6 42.48c-5.315 5.698-8.578 13.37-8.578 21.804 0 17.673 14.327 32 32 32 9.509 0 18.049-4.147 23.91-10.732l0.028-0.032zM592 312.32l-191.52 210.72c-20.098-24.563-32.277-56.285-32.277-90.852 0-79.529 64.471-144 144-144 29.737 0 57.368 9.014 80.312 24.458l-0.514-0.326z" />
<glyph unicode="&#xe112;" glyph-name="car-fill" data-tags="car-fill" d="M960 544h-43.2l-111.12 250c-10.218 22.576-32.548 38-58.48 38h-470.4c-25.932 0-48.262-15.424-58.317-37.598l-0.163-0.402-111.12-250h-43.2c-17.673 0-32-14.327-32-32s14.327-32 32-32v0h32v-320c0-35.346 28.654-64 64-64v0h96c35.346 0 64 28.654 64 64v0 32h384v-32c0-35.346 28.654-64 64-64v0h96c35.346 0 64 28.654 64 64v0 320h32c17.673 0 32 14.327 32 32s-14.327 32-32 32v0zM320 352h-96c-17.673 0-32 14.327-32 32s14.327 32 32 32v0h96c17.673 0 32-14.327 32-32s-14.327-32-32-32v0zM800 352h-96c-17.673 0-32 14.327-32 32s14.327 32 32 32v0h96c17.673 0 32-14.327 32-32s-14.327-32-32-32v0zM177.24 544l99.56 224h470.4l99.56-224z" />
<glyph unicode="&#xe114;" glyph-name="car-simple-fill" data-tags="car-simple-fill" d="M960 544h-43.2l-111.12 250c-10.218 22.576-32.548 38-58.48 38h-470.4c-25.932 0-48.262-15.424-58.317-37.598l-0.163-0.402-111.12-250h-43.2c-17.673 0-32-14.327-32-32s14.327-32 32-32v0h32v-320c0-35.346 28.654-64 64-64v0h96c35.346 0 64 28.654 64 64v0 32h384v-32c0-35.346 28.654-64 64-64v0h96c35.346 0 64 28.654 64 64v0 320h32c17.673 0 32 14.327 32 32s-14.327 32-32 32v0zM177.24 544l99.56 224h470.4l99.56-224z" />
</font>
</defs>
</svg>
